Времена года в Канаде (4 серии из 4) / The Wild Canadian Year (Jeff Turner / Джефф Тернер) [2017, Документальный, HDTV 720p, RUS/ENG]

Страницы:  1
Ответить
Автор
Сообщение

dean10

Moderator

Стаж: 9 лет 7 месяцев

Сообщений: 6393

dean10 · 19-Июл-18 14:34 (1 год назад, ред. 25-Июл-18 10:14)

Времена года в Канаде (4 серии из 4) / The Wild Canadian Year
Год выпуска: 2017
Страна: Канада
Студия: RiverRoadFilms
Жанр: Документальный
Продолжительность: 4x ~ 00:52:00
Перевод: Профессиональный (дублированный)
Русские субтитры: нет
Режиссер: Jeff Turner / Джефф Тернер
Описание:
Времена года в Канаде (4 серии из 4)
серии
1. Весна
2. Лето
3. Осень
4. Зима
Сэмпл: http://multi-up.com/1204166
Тип релиза: HDTV 720p
Контейнер: TS
Видео: AVC, 1280x720 (16:9), 50 fps, 8 226 kb/s, 0.179 bit/pixel
Аудио: Russian, MP2, 48 kHz, 2 ch; 128 kbps
Аудио 2: English, MP2, 48 kHz, 2 ch; 128 kbps
MediaInfo
General
ID : 1 (0x1)
Complete name : F:\Времена года в Канаде_HDTV 720p_RUS_ENG-dds\1. Весна.ts
Format : MPEG-TS
File size : 3.21 GiB
Duration : 51 min 33 s
Overall bit rate mode : Variable
Overall bit rate : 8 925 kb/s
Video
ID : 305 (0x131)
Menu ID : 17105 (0x42D1)
Format : AVC
Format/Info : Advanced Video Codec
Format profile : [email protected]
Format settings : CABAC / 5 Ref Frames
Format settings, CABAC : Yes
Format settings, RefFrames : 5 frames
Codec ID : 27
Duration : 51 min 33 s
Bit rate : 8 226 kb/s
Width : 1 280 pixels
Height : 720 pixels
Display aspect ratio : 16:9
Frame rate : 50.000 FPS
Standard : Component
Color space : YUV
Chroma subsampling : 4:2:0
Bit depth : 8 bits
Scan type : Progressive
Bits/(Pixel*Frame) : 0.179
Stream size : 2.96 GiB (92%)
Color range : Limited
Color primaries : BT.709
Transfer characteristics : BT.709
Matrix coefficients : BT.709
Audio #1
ID : 405 (0x195)
Menu ID : 17105 (0x42D1)
Format : MPEG Audio
Format version : Version 1
Format profile : Layer 2
Codec ID : 3
Duration : 51 min 33 s
Bit rate mode : Constant
Bit rate : 128 kb/s
Channel(s) : 2 channels
Sampling rate : 48.0 kHz
Frame rate : 41.667 FPS (1152 SPF)
Compression mode : Lossy
Delay relative to video : -100 ms
Stream size : 47.2 MiB (1%)
Language : Russian
Audio #2
ID : 425 (0x1A9)
Menu ID : 17105 (0x42D1)
Format : MPEG Audio
Format version : Version 1
Format profile : Layer 2
Codec ID : 3
Duration : 51 min 33 s
Bit rate mode : Constant
Bit rate : 128 kb/s
Channel(s) : 2 channels
Sampling rate : 48.0 kHz
Frame rate : 41.667 FPS (1152 SPF)
Compression mode : Lossy
Delay relative to video : -100 ms
Stream size : 47.2 MiB (1%)
Language : English
Скриншоты
Download
Сайт не распространяет и не хранит электронные версии произведений, а лишь предоставляет доступ к создаваемому пользователями каталогу ссылок на торрент-файлы, которые содержат только списки хеш-сумм
Как скачивать? (для скачивания .torrent файлов необходима регистрация)
[Профиль]  [ЛС] 
 
Ответить
Loading...
Error