[TR24][OF] Living Strings (cond. Geraldo) - Music From Fiddler On The Roof - 1968/2018 (Easy Listening)

Страницы:  1
Ответить
Автор
Сообщение

papa1954

Top Seed 09* 10240r

Стаж: 12 лет 5 месяцев

Сообщений: 16968

papa1954 · 04-Июл-18 16:19 (1 год 1 месяц назад)

Living Strings (cond. Geraldo) - Music From Fiddler On The Roof Формат записи/Источник записи: [TR24][OF]
Наличие водяных знаков: Нет
Год издания/переиздания диска: 1968/2018
Жанр: Easy Listening
Издатель (лейбл): RCA/Legacy
Продолжительность: 45:27
Наличие сканов в содержимом раздачи: Только обложка альбома
Источник: WRZmusic
Магазин: qobuz.com
Треклист:
01. Medley: Fiddler On The Roof / Tradition (3:02)
02. Matchmaker (3:35)
03. If I Were A Rich Man (4:18)
04. Sabbath Prayer (3:00)
05. Medley: To Life / Miracle Of Miracles (7:03)
06. Tevye's Dream (4:33)
07. Sunrise, Sunset (4:23)
08. Now I Have Everything (3:34)
09. Medley: Do You Love Me? / Far From The Home I Love (8:15)
10. Anatevka (3:44)
Arranged By – Bernard Ebbinghouse, Geraldo
Conductor – Geraldo (Gerald Walcan Bright)
Producer – Ethel Gabriel
Recorded in London, England.
 

Контейнер: FLAC (*.flac)
Тип рипа: tracks
Разрядность: 24/192
Формат: PCM
Количество каналов: 2.0
Лог проверки качества
foobar2000 1.3.9 / Dynamic Range Meter 1.1.1
log date: 2018-07-04 15:52:58
--------------------------------------------------------------------------------
Analyzed: Living Strings / Music From "Fiddler On The Roof"
--------------------------------------------------------------------------------
DR Peak RMS Duration Track
--------------------------------------------------------------------------------
DR9 -4.57 dB -18.11 dB 3:02 01-Medley: Fiddler On The Roof / Tradition
DR9 -5.12 dB -17.40 dB 3:35 02-Matchmaker
DR11 -5.88 dB -22.21 dB 4:18 03-If I Were A Rich Man
DR11 -8.62 dB -24.78 dB 3:00 04-Sabbath Prayer
DR12 -5.42 dB -21.05 dB 7:03 05-Medley: To Life / Miracle Of Miracles
DR11 -6.09 dB -22.20 dB 4:33 06-Tevye's Dream
DR11 -8.73 dB -23.50 dB 4:23 07-Sunrise, Sunset
DR10 -7.56 dB -21.11 dB 3:34 08-Now I Have Everything
DR11 -7.73 dB -23.58 dB 8:15 09-Medley: Do You Love Me? / Far From The Home I Love
DR12 -9.78 dB -26.56 dB 3:44 10-Anatevka
--------------------------------------------------------------------------------
Number of tracks: 10
Official DR value: DR11
Samplerate: 192000 Hz
Channels: 2
Bits per sample: 24
Bitrate: 4618 kbps
Codec: FLAC
================================================================================
 
Download
Сайт не распространяет и не хранит электронные версии произведений, а лишь предоставляет доступ к создаваемому пользователями каталогу ссылок на торрент-файлы, которые содержат только списки хеш-сумм
Как скачивать? (для скачивания .torrent файлов необходима регистрация)
[Профиль]  [ЛС] 
 
Ответить
Loading...
Error