(Mainstream Jazz, Cool) [CD] Harry Allen & Joe Temperley - Cocktails For Two - 2007, FLAC (image+.cue), lossless

Страницы:  1

Ответить
Автор
Сообщение

poptrof

Стаж: 8 лет 5 месяцев

Сообщений: 65


poptrof · 04-Июл-17 18:01 (1 год 11 месяцев назад)

Harry Allen & Joe Temperley / Cocktails For Two
Жанр: Mainstream Jazz, Cool
Носитель: CD
Год издания: 2007
Издатель (лейбл): Sackville
Номер по каталогу: B000PLXFL0
Страна исполнителя (группы): US
Аудиокодек: FLAC (*.flac)
Тип рипа: image+.cue
Битрейт аудио: lossless
Продолжительность: 01:08:54
Источник (релизер): Собственные рипы
Наличие сканов в содержимом раздачи: нет
Треклист:
01 1. Cocktails For Two (take 2) [6:10]
02 2. Blues In The Closet (take 2) [5:39]
03 3. My Romance [4:13]
04 4. I've Got The World On A String [10:09]
05 5. Tangerine [8:07]
06 6. Everything Happens To Me [5:34]
07 7. Polka Dots And Moonbeams [5:31]
08 8. In A Mellow Tone [6:55]
09 9. Sweet And Lovely [9:56]
10 10. Jumpin' At The Woodside [6:40]
Лог создания рипа
Exact Audio Copy V1.3 from 2. September 2016
EAC extraction logfile from 28. June 2017, 17:38
Joe Temperley / Harry Allen / Cocktails for Two
Used drive : Optiarc DVD RW AD-7243S Adapter: 1 ID: 0
Read mode : Secure
Utilize accurate stream : Yes
Defeat audio cache : Yes
Make use of C2 pointers : No
Read offset correction : 48
Overread into Lead-In and Lead-Out : No
Fill up missing offset samples with silence : Yes
Delete leading and trailing silent blocks : No
Null samples used in CRC calculations : Yes
Used interface : Native Win32 interface for Win NT & 2000
Used output format : User Defined Encoder
Selected bitrate : 112 kBit/s
Quality : High
Add ID3 tag : No
Command line compressor : C:\Program Files (x86)\Exact Audio Copy\Flac\flac.exe
Additional command line options : -T "artist=%artist%" -T "title=%title%" -T "album=%albumtitle%" -T "date=%year%" -T "tracknumber=%tracknr%" -T "genre=%genre%" -5 %source%
TOC of the extracted CD
Track | Start | Length | Start sector | End sector
---------------------------------------------------------
1 | 0:00.00 | 6:09.64 | 0 | 27738
2 | 6:09.64 | 5:39.36 | 27739 | 53199
3 | 11:49.25 | 4:12.70 | 53200 | 72169
4 | 16:02.20 | 10:09.37 | 72170 | 117881
5 | 26:11.57 | 8:06.50 | 117882 | 154381
6 | 34:18.32 | 5:33.64 | 154382 | 179420
7 | 39:52.21 | 5:31.37 | 179421 | 204282
8 | 45:23.58 | 6:54.73 | 204283 | 235405
9 | 52:18.56 | 9:55.41 | 235406 | 280071
10 | 62:14.22 | 6:39.60 | 280072 | 310056
Range status and errors
Selected range
Filename H:\sax\Новая папка\EAC\Joe Temperley , Harry Allen - Cocktails for Two\Joe Temperley , Harry Allen - Cocktails for Two.wav
Peak level 97.7 %
Extraction speed 4.0 X
Range quality 99.9 %
Test CRC C5A6B1C8
Copy CRC C5A6B1C8
Copy OK
No errors occurred
End of status report
---- CUETools DB Plugin V2.1.6
[CTDB TOCID: ai9FO7Ka8kzQJEjS1CRszpgopbo-] disk not present in database
Submit result: ai9FO7Ka8kzQJEjS1CRszpgopbo- has been uploaded
==== Log checksum 5A90BEE9C7EE2E146B2C0BF36FD0526FE762DF153013A41259D49DBC7C2134F7 ====
Download
Для скачивания .torrent файлов необходима регистрация
Сайт не распространяет и не хранит электронные версии произведений, а лишь предоставляет доступ к создаваемому пользователями каталогу ссылок на торрент-файлы, которые содержат только списки хеш-сумм
[Профиль]  [ЛС] 
 
Ответить
Loading...
Error