(Mainstream Jazz, Cool) [CD] Harry Allen Quartet featuring Bill Charlap - Blues For Pres And Teddy - 2011, FLAC (image+.cue), lossless

Страницы:  1

Ответить
Автор
Сообщение

poptrof

Стаж: 8 лет 5 месяцев

Сообщений: 65


poptrof · 30-Июн-17 22:37 (1 год 11 месяцев назад)

Harry Allen Quartet featuring Bill Charlap / Blues For Pres And Teddy
Жанр: Mainstream Jazz, Cool
Носитель: CD
Год издания: 2011
Издатель (лейбл): Indies
Номер по каталогу: B005ZJIVOS
Страна исполнителя (группы): US
Аудиокодек: FLAC (*.flac)
Тип рипа: image+.cue
Битрейт аудио: lossless
Продолжительность: 01:13:00
Источник (релизер): Собственные рипы
Наличие сканов в содержимом раздачи: нет
Треклист:
01 All Of Me ( Seymour Simons / Gerald Marks ) [6:36]
02 Prisoner Of Love ( Russ Columbo / Clarence Gask III ) [5:50]
03 Louise ( Richard Whiting ) [5:41]
04 Star Dust ( Hoagy Carmichael ) [5:41]
05 On The Sunny Side Of The Street ( Jimmy McHugh ) [4:34]
06 Love Me Or Leave Me ( Walter Donaldson ) [6:41]
07 I Don’t Know What Time It Was ( Richard Rodgers ) [6:13]
08 Taking A Chance On Love ( Vernon Duke ) [4:47]
09 I’m Confessin’ ( Al Neiburg / Doc Dougherty / Ellis Reynolds ) [5:57]
10 Almost Like Being In Love ( Alan Jay Lerner / Frederick Loewe ) [5:47]
11 Love Is Here To Stay ( George Gershwin ) [5:17]
12 Blues For Pres And Teddy ( Harry Allen ) [6:46]
13 There Will Be Never Be Another You ( Harry Warren / Mack Gordon ) [3:09]
Лог создания рипа
Exact Audio Copy V1.3 from 2. September 2016
EAC extraction logfile from 16. June 2017, 18:39
Harry Allen / Blues For Pres And Teddy
Used drive : Optiarc DVD RW AD-7243S Adapter: 1 ID: 0
Read mode : Secure
Utilize accurate stream : Yes
Defeat audio cache : Yes
Make use of C2 pointers : No
Read offset correction : 48
Overread into Lead-In and Lead-Out : No
Fill up missing offset samples with silence : Yes
Delete leading and trailing silent blocks : No
Null samples used in CRC calculations : Yes
Used interface : Native Win32 interface for Win NT & 2000
Used output format : User Defined Encoder
Selected bitrate : 112 kBit/s
Quality : High
Add ID3 tag : No
Command line compressor : C:\Program Files (x86)\Exact Audio Copy\Flac\flac.exe
Additional command line options : -T "artist=%artist%" -T "title=%title%" -T "album=%albumtitle%" -T "date=%year%" -T "tracknumber=%tracknr%" -T "genre=%genre%" -5 %source%
TOC of the extracted CD
Track | Start | Length | Start sector | End sector
---------------------------------------------------------
1 | 0:00.00 | 6:36.35 | 0 | 29734
2 | 6:36.35 | 5:49.45 | 29735 | 55954
3 | 12:26.05 | 5:41.01 | 55955 | 81530
4 | 18:07.06 | 5:41.23 | 81531 | 107128
5 | 23:48.29 | 4:33.50 | 107129 | 127653
6 | 28:22.04 | 6:40.53 | 127654 | 157706
7 | 35:02.57 | 6:13.12 | 157707 | 185693
8 | 41:15.69 | 4:46.65 | 185694 | 207208
9 | 46:02.59 | 5:57.25 | 207209 | 234008
10 | 52:00.09 | 5:47.07 | 234009 | 260040
11 | 57:47.16 | 5:17.30 | 260041 | 283845
12 | 63:04.46 | 6:46.21 | 283846 | 314316
13 | 69:50.67 | 3:09.36 | 314317 | 328527
Range status and errors
Selected range
Filename H:\sax\Новая папка\EAC\Harry Allen - Blues For Pres And Teddy\Harry Allen - Blues For Pres And Teddy.wav
Peak level 100.0 %
Extraction speed 4.4 X
Range quality 100.0 %
Test CRC 9B85BABC
Copy CRC 9B85BABC
Copy OK
No errors occurred
End of status report
---- CUETools DB Plugin V2.1.6
[CTDB TOCID: ikBcCoKDpPTxvUfwfwlR1egCw6E-] found
Submit result: already submitted
Track | CTDB Status
1 | (5/5) Accurately ripped
2 | (5/5) Accurately ripped
3 | (5/5) Accurately ripped
4 | (5/5) Accurately ripped
5 | (5/5) Accurately ripped
6 | (5/5) Accurately ripped
7 | (5/5) Accurately ripped
8 | (5/5) Accurately ripped
9 | (5/5) Accurately ripped
10 | (5/5) Accurately ripped
11 | (5/5) Accurately ripped
12 | (5/5) Accurately ripped
13 | (5/5) Accurately ripped
==== Log checksum 8FE19D87E191977AC57509B18DEA7DC9BA792F1952AB441A2D34DDCC1EDB1729 ====
Состав
Harry Allen (tenor sax)
Bill Charlap (piano)
Peter Washington (bass)
Dennis Mackrel (drums)
Download
Для скачивания .torrent файлов необходима регистрация
Сайт не распространяет и не хранит электронные версии произведений, а лишь предоставляет доступ к создаваемому пользователями каталогу ссылок на торрент-файлы, которые содержат только списки хеш-сумм
[Профиль]  [ЛС] 
 
Ответить
Loading...
Error