[TR24][OF] Goldie - The Journey Man - 2017 (Drum & Bass, Liquid Funk)

Страницы:  1
Ответить
Автор
Сообщение

dotodot500

Top Bonus 05* 10TB

Стаж: 9 лет 5 месяцев

Сообщений: 1934

dotodot500 · 24-Июн-17 02:27 (2 года 1 месяц назад)

Goldie / The Journey Man
Формат записи/Источник записи: [TR24][OF]
Наличие водяных знаков: Нет
Год издания/переиздания диска: 2017
Жанр: Drum & Bass, Liquid Funk
Издатель (лейбл): Metalheadz
Продолжительность: 01:48:52
Наличие сканов в содержимом раздачи: Только обложка альбома
Треклист:
01. Horizons (Feat. Swindle) [07:10]
02. Prism [06:09]
03. Mountains (Farida's Song) [05:15]
04. Castaway [04:31]
05. The Mirrored River [05:52]
06. I Adore You (Feat. Natalie Williams) [06:07]
(Goldie vs. Ulterior Motive)
07. I Think of You [07:15]
08. Truth (Feat. Jose James) [05:02]
09. Redemption [18:39]
10. Tu Viens Avec Moi? [08:51]
11. The Ballad Celeste [05:15]
12. This is Not A Love Song [06:40]
13. The River Mirrored [05:52]
14. Triangle [05:54]
15. Tomorrow's Not Today [04:38]
16. Run Run Run [14:35]
Контейнер: FLAC (*.flac)
Тип рипа: tracks
Разрядность: 24/44,1
Формат: PCM
Количество каналов: 2.0
Лог проверки качества
foobar2000 1.3.7 / Замер динамического диапазона (DR) 1.1.1
Дата отчёта: 2017-06-24 02:22:46
--------------------------------------------------------------------------------
Анализ: Goldie / The Journey Man
--------------------------------------------------------------------------------
DR Пики RMS Продолжительность трека
--------------------------------------------------------------------------------
DR8 -0.10 дБ -10.83 дБ 7:09 01-Horizons (feat. Swindle)
DR5 0.00 дБ -7.62 дБ 6:07 02-Prism
DR6 -0.10 дБ -8.54 дБ 5:14 03-Mountains
DR5 -0.10 дБ -6.79 дБ 4:30 04-Castaway
DR5 -0.10 дБ -7.52 дБ 5:51 05-The Mirrored River
DR5 -0.10 дБ -7.81 дБ 6:06 06-I Adore You (feat. Natalie Williams)
DR6 -0.10 дБ -8.80 дБ 7:13 07-I Think Of You
DR10 -0.10 дБ -13.66 дБ 4:59 08-Truth (feat. José James)
DR5 -0.10 дБ -8.00 дБ 18:36 09-Redemption
DR6 -0.10 дБ -8.49 дБ 8:49 10-Tu Viens Avec Moi?
DR8 -0.10 дБ -10.56 дБ 5:12 11-The Ballad Celeste
DR7 -0.10 дБ -9.62 дБ 6:35 12-This Is Not A Love Song
DR5 -0.10 дБ -7.62 дБ 5:51 13-The River Mirrored
DR6 -0.10 дБ -8.68 дБ 5:52 14-Triangle
DR7 -0.10 дБ -9.14 дБ 4:37 15-Tomorrow's Not Today
DR10 -0.10 дБ -12.68 дБ 6:09 16-Run, Run, Run
--------------------------------------------------------------------------------
Количество треков: 16
Реальные значения DR: DR7
Частота: 44100 Гц
Каналов: 2
Разрядность: 24
Битрейт: 1422 кбит/с
Кодек: FLAC
================================================================================
Источник (релизер): qobuz
Download
Сайт не распространяет и не хранит электронные версии произведений, а лишь предоставляет доступ к создаваемому пользователями каталогу ссылок на торрент-файлы, которые содержат только списки хеш-сумм
Как скачивать? (для скачивания .torrent файлов необходима регистрация)
[Профиль]  [ЛС] 

tonix

Стаж: 11 лет 4 месяца

Сообщений: 256

tonix · 04-Апр-19 17:52 (спустя 1 год 9 месяцев)

Хотел удалить.
Пока что не смог.
[Профиль]  [ЛС] 

xvdbvx

Стаж: 2 года 9 месяцев

Сообщений: 58


xvdbvx · 21-Апр-19 18:49 (спустя 17 дней)

tonix писал(а):
77152008Хотел удалить.
Пока что не смог.
Не торопись, дай другим послушать...
[Профиль]  [ЛС] 
 
Ответить
Loading...
Error