(Cool, Post-Bop) [CD] Lee Konitz - Lee Konitz Meets Don Friedman - 1994 (Japan Edition), FLAC (tracks+.cue), lossless

Страницы:  1

Ответить
Автор
Сообщение

fiks22

Top Seed 08* 5120r

Стаж: 11 лет 8 месяцев

Сообщений: 10892

fiks22 · 04-Мар-17 00:52 (2 года 3 месяца назад)

Lee Konitz - Lee Konitz Meets Don Friedman
Жанр: Cool, Post-Bop
Носитель: CD
Страна-производитель диска (релиза): Япония
Год издания: 1994
Издатель (лейбл): Insights/Camerata Tokyo
Номер по каталогу: 25CJ-10
Аудиокодек: FLAC (*.flac)
Тип рипа: tracks+.cue
Битрейт аудио: lossless
Продолжительность: 71:54
Источник (релизер): subix5
Наличие сканов в содержимом раздачи: сетевые
Треклист:
01. Alone Together (Schwartz) - 11:53
02. In Your Own Sweet Way (Brubeck) - 10:11
03. Huntington Street (Williams) - 7:45
04. Opus d'Amour (Friedman) - 9:41
05. It's You (Konitz) - 7:52
06. My Old Flame (Coslow) - 8:29
07. Almost Everything (Friedman) - 8:58
08. Lew 'N' Shu (Konitz) - 7:05
Состав:
Lee Konitz - soprano saxophone, alto saxophone
Don Friedman - piano
Tsutomu Okada - bass
Jeff Williams - drums
Recorded live at Nova Hall, Tsukuba, Japan on October 23, 1992.
Лог создания рипа
Exact Audio Copy V1.3 from 2. September 2016
EAC extraction logfile from 23. February 2017, 17:05
Lee Konitz / Lee Konitz Meets Don Friedman
Used drive : PLDS DVD+-RW DU-8A3S Adapter: 1 ID: 0
Read mode : Secure
Utilize accurate stream : Yes
Defeat audio cache : Yes
Make use of C2 pointers : No
Read offset correction : 6
Overread into Lead-In and Lead-Out : No
Fill up missing offset samples with silence : Yes
Delete leading and trailing silent blocks : No
Null samples used in CRC calculations : Yes
Used interface : Native Win32 interface for Win NT & 2000
Gap handling : Appended to previous track
Used output format : User Defined Encoder
Selected bitrate : 1024 kBit/s
Quality : High
Add ID3 tag : No
Command line compressor : Z:\home\todd\Downloads\flac-1.3.2-win\win32\flac.exe
Additional command line options : -8 -V -T "ARTIST=%artist%" -T "TITLE=%title%" -T "ALBUM=%albumtitle%" -T "DATE=%year%" -T "TRACKNUMBER=%tracknr%" -T "GENRE=%genre%" -T "PERFORMER=%albuminterpret%" -T "COMPOSER=%composer%" %haslyrics%--tag-from-file=LYRICS="%lyricsfile%"%haslyrics% -T "ALBUMARTIST=%albumartist%" -T "DISCNUMBER=%cdnumber%" -T "TOTALDISCS=%totalcds%" -T "TOTALTRACKS=%numtracks%" -T "COMMENT=%comment%" %source% -o %dest%
TOC of the extracted CD
Track | Start | Length | Start sector | End sector
---------------------------------------------------------
1 | 0:00.00 | 11:53.30 | 0 | 53504
2 | 11:53.30 | 10:11.30 | 53505 | 99359
3 | 22:04.60 | 7:45.12 | 99360 | 134246
4 | 29:49.72 | 9:40.73 | 134247 | 177819
5 | 39:30.70 | 7:52.02 | 177820 | 213221
6 | 47:22.72 | 8:28.50 | 213222 | 251371
7 | 55:51.47 | 8:57.63 | 251372 | 291709
8 | 64:49.35 | 7:04.40 | 291710 | 323549
Track 1
Filename C:\Lee Konitz - Lee Konitz Meets Don Friedman (1994) {Camerata 25CJ-10} [EAC-FLAC]\01 Alone Together.wav
Pre-gap length 0:00:02.00
Peak level 92.2 %
Extraction speed 3.5 X
Track quality 100.0 %
Test CRC D67523E2
Copy CRC D67523E2
Accurately ripped (confidence 2) [E9A6AF8F] (AR v1)
Copy OK
Track 2
Filename C:\Lee Konitz - Lee Konitz Meets Don Friedman (1994) {Camerata 25CJ-10} [EAC-FLAC]\02 In Your Own Sweet Way.wav
Peak level 86.0 %
Extraction speed 4.2 X
Track quality 100.0 %
Test CRC 7AEA94DA
Copy CRC 7AEA94DA
Accurately ripped (confidence 2) [90AA2276] (AR v1)
Copy OK
Track 3
Filename C:\Lee Konitz - Lee Konitz Meets Don Friedman (1994) {Camerata 25CJ-10} [EAC-FLAC]\03 Huntington Street.wav
Peak level 100.0 %
Extraction speed 4.2 X
Track quality 99.9 %
Test CRC D59E559A
Copy CRC D59E559A
Accurately ripped (confidence 2) [A97ADAAA] (AR v1)
Copy OK
Track 4
Filename C:\Lee Konitz - Lee Konitz Meets Don Friedman (1994) {Camerata 25CJ-10} [EAC-FLAC]\04 Opus D'Amour.wav
Peak level 52.9 %
Extraction speed 4.8 X
Track quality 99.9 %
Test CRC 9E91C3CB
Copy CRC 9E91C3CB
Accurately ripped (confidence 2) [2DB1D310] (AR v1)
Copy OK
Track 5
Filename C:\Lee Konitz - Lee Konitz Meets Don Friedman (1994) {Camerata 25CJ-10} [EAC-FLAC]\05 It's You.wav
Peak level 70.5 %
Extraction speed 5.5 X
Track quality 100.0 %
Test CRC DAB52DAB
Copy CRC DAB52DAB
Accurately ripped (confidence 2) [8B75FD2C] (AR v1)
Copy OK
Track 6
Filename C:\Lee Konitz - Lee Konitz Meets Don Friedman (1994) {Camerata 25CJ-10} [EAC-FLAC]\06 My Old Flame.wav
Peak level 43.8 %
Extraction speed 5.9 X
Track quality 100.0 %
Test CRC DE9EB798
Copy CRC DE9EB798
Accurately ripped (confidence 2) [65BD0196] (AR v1)
Copy OK
Track 7
Filename C:\Lee Konitz - Lee Konitz Meets Don Friedman (1994) {Camerata 25CJ-10} [EAC-FLAC]\07 Almost Everything.wav
Peak level 61.2 %
Extraction speed 5.7 X
Track quality 99.9 %
Test CRC 9C12745E
Copy CRC 9C12745E
Accurately ripped (confidence 2) [9836ABF0] (AR v1)
Copy OK
Track 8
Filename C:\Lee Konitz - Lee Konitz Meets Don Friedman (1994) {Camerata 25CJ-10} [EAC-FLAC]\08 Lew 'N' Shu.wav
Peak level 55.0 %
Extraction speed 6.4 X
Track quality 100.0 %
Test CRC EC765089
Copy CRC EC765089
Accurately ripped (confidence 2) [16FDD144] (AR v1)
Copy OK
All tracks accurately ripped
No errors occurred
End of status report
==== Log checksum 7E3CE01E35EACF3E9819938F0EB9810B8BA63D729E2E07C407878C41D5979B69 ====
Содержание индексной карты (.CUE)
REM GENRE Jazz
REM DATE 1994
REM DISCID 7010DA08
REM COMMENT "ExactAudioCopy v1.3"
PERFORMER "Lee Konitz"
TITLE "Lee Konitz Meets Don Friedman"
FILE "01 - Alone Together.wav" WAVE
TRACK 01 AUDIO
TITLE "Alone Together"
PERFORMER "Lee Konitz"
INDEX 01 00:00:00
FILE "02 - In Your Own Sweet Way.wav" WAVE
TRACK 02 AUDIO
TITLE "In Your Own Sweet Way"
PERFORMER "Lee Konitz"
INDEX 01 00:00:00
FILE "03 - Huntington Street.wav" WAVE
TRACK 03 AUDIO
TITLE "Huntington Street"
PERFORMER "Lee Konitz"
INDEX 01 00:00:00
FILE "04 - Opus d'Amour.wav" WAVE
TRACK 04 AUDIO
TITLE "Opus d'Amour"
PERFORMER "Lee Konitz"
INDEX 01 00:00:00
FILE "05 - It's You.wav" WAVE
TRACK 05 AUDIO
TITLE "It's You"
PERFORMER "Lee Konitz"
INDEX 01 00:00:00
FILE "06 - My Old Flame.wav" WAVE
TRACK 06 AUDIO
TITLE "My Old Flame"
PERFORMER "Lee Konitz"
INDEX 01 00:00:00
FILE "07 - Almost Everything.wav" WAVE
TRACK 07 AUDIO
TITLE "Almost Everything"
PERFORMER "Lee Konitz"
INDEX 01 00:00:00
FILE "08 - Lew 'N' Shu.wav" WAVE
TRACK 08 AUDIO
TITLE "Lew 'N' Shu"
PERFORMER "Lee Konitz"
INDEX 01 00:00:00
Отчет CUETools
[CUETools log; Date: 04.03.2017 0:41:56; Version: 2.1.5]
[CTDB TOCID: qWMmg4BPiGbDpOWYMAhFmJjh66I-] found.
Track | CTDB Status
1 | (1/1) Accurately ripped
2 | (1/1) Accurately ripped
3 | (1/1) Accurately ripped
4 | (1/1) Accurately ripped
5 | (1/1) Accurately ripped
6 | (1/1) Accurately ripped
7 | (1/1) Accurately ripped
8 | (1/1) Accurately ripped
[AccurateRip ID: 00179252-009a5aa1-7010da08] found.
Track [ CRC | V2 ] Status
01 [e9a6af8f|837cca2e] (2+0/2) Accurately ripped
02 [90aa2276|c8484dd6] (2+0/2) Accurately ripped
03 [a97adaaa|a71e8d30] (2+0/2) Accurately ripped
04 [2db1d310|83d8066b] (2+0/2) Accurately ripped
05 [8b75fd2c|2b507495] (2+0/2) Accurately ripped
06 [65bd0196|082971ce] (2+0/2) Accurately ripped
07 [9836abf0|b73cb9b4] (2+0/2) Accurately ripped
08 [16fdd144|512f9c2b] (2+0/2) Accurately ripped
Track Peak [ CRC32 ] [W/O NULL] [ LOG ]
-- 100,0 [963D58BF] [13142726]
01 92,2 [D67523E2] [BB45B373] CRC32
02 86,0 [7AEA94DA] [D0FAF72F] CRC32
03 100,0 [D59E559A] [186ADB45] CRC32
04 52,9 [9E91C3CB] [E2E06F77] CRC32
05 70,5 [DAB52DAB] [319E5124] CRC32
06 43,8 [DE9EB798] [67E97978] CRC32
07 61,2 [9C12745E] [76D8C10B] CRC32
08 55,0 [EC765089] [027479CC] CRC32
Download
Для скачивания .torrent файлов необходима регистрация
Сайт не распространяет и не хранит электронные версии произведений, а лишь предоставляет доступ к создаваемому пользователями каталогу ссылок на торрент-файлы, которые содержат только списки хеш-сумм
[Профиль]  [ЛС] 
 
Ответить
Loading...
Error