(Pauzern Rap, Hip-Hop, Alternative) Anacondaz - Коллекция (5 Альбомов) - (2013-2018), ALAC (tracks+.cue), lossless

Страницы:  1
Ответить
Автор
Сообщение

FiLbI4_meloman

Top Seed 01* 40r

Стаж: 9 лет 4 месяца

Сообщений: 300

FiLbI4_meloman · 21-Ноя-16 18:13 (2 года 9 месяцев назад, ред. 08-Июн-19 19:07)

Anacondaz - Коллекция Жанр: Alternative Rap, Hip-Hop | Носитель: CD | Страна-производитель диска: Россия | Страна: Россия (г. Москва) | Аудиокодек : ALAC | Битрейт аудио: lossless | Вшитые тексты: вшиты | Программа-риповщик: EAC (диск)
Общая продолжительность: 03:57:35 | Источник (релизер): Собственные диски | Наличие сканов в содержимом раздачи: да
(2012) Дети И Радуга (Переиздание 2013)
Издатель (лейбл): ООО "Универсам Культуры" & ООО "Мистерия Плюс"
Номер по каталогу: CD-M+234-2/9
Продолжительность: 00:48:38


Треклист:
01. Лузер (03:40)
02. Фотошоп (Feat. Proff) (03:19)
03. Корабль-Призрак (02:57)
04. Круглый Год (03:37)
05. Смертельное Оружие (04:09)
06. Радуга (Feat. RasKar) (03:27)
07. Трус (03:05)
08. Грустный (03:29)
09. Этюд В Багровых Тонах (03:05)
10. Мой Муж (02:02)
11. Рассвет Мертвецов (02:32)
12. Панч На Панче (03:37)
13. Грязные Мысли (02:42)
14. Беляши (02:53)
15. Я Иду Гулять (Бриллианты Не Вечны) (03:21)
Лог создания рипа
Exact Audio Copy V1.1 from 23. June 2015
Отчёт EAC об извлечении, выполненном 22. января 2016, 16:46
Anacondaz / Дети И Радуга
Дисковод: TSSTcorpCDDVDW SH-224BB Adapter: 1 ID: 0
Режим чтения : Достоверность
Использование точного потока : Да
Отключение кэша аудио : Да
Использование указателей C2 : Нет
Коррекция смещения при чтении : 6
Способность читать области Lead-in и Lead-out : Да
Заполнение пропущенных сэмплов тишиной : Да
Удаление блоков с тишиной в начале и конце : Нет
При вычислениях CRC использовались нулевые сэмплы : Да
Интерфейс : Встроенный Win32-интерфейс для Win NT/2000
Обработка зазоров : Добавлено к предыдущему треку
Выходной формат : Пользовательский кодировщик
Выбранный битрейт : 128 kBit/s
Качество : Высокий
Добавление ID3-тега : Нет
Утилита сжатия : C:\Program Files\Foobar2000\encoders\refalac64.exe
Дополнительные параметры : -s --ignorelength --artist "%artist%" --composer "%composer%" --track "%tracknr%"/"%numtracks%" --disk "%cdnumber%"/"%totalcds%" --title "%title%" --album "%albumtitle%" --date "%year%" --genre "%genre%" %haslyrics%--lyrics "%lyricsfile%"%haslyrics% %hascover%--artwork "%coverfile%"%hascover% -o %dest% %source%
TOC извлечённого CD
Трек | Старт | Длительность | Начальный сектор | Конечный сектор
---------------------------------------------------------------------
1 | 0:00.00 | 3:40.36 | 0 | 16535
2 | 3:40.36 | 4:02.60 | 16536 | 34745
3 | 7:43.21 | 2:57.13 | 34746 | 48033
4 | 10:40.34 | 3:37.06 | 48034 | 64314
5 | 14:17.40 | 4:08.65 | 64315 | 82979
6 | 18:26.30 | 3:27.30 | 82980 | 98534
7 | 21:53.60 | 3:04.46 | 98535 | 112380
8 | 24:58.31 | 3:28.40 | 112381 | 128020
9 | 28:26.71 | 3:05.00 | 128021 | 141895
10 | 31:31.71 | 2:01.64 | 141896 | 151034
11 | 33:33.60 | 2:31.43 | 151035 | 162402
12 | 36:05.28 | 3:37.10 | 162403 | 178687
13 | 39:42.38 | 2:41.61 | 178688 | 190823
14 | 42:24.24 | 2:53.04 | 190824 | 203802
15 | 45:17.28 | 3:20.60 | 203803 | 218862
Трек 1
Имя файла H:\Музон (Loseless)\Мои Рипы\Anacondaz - CD-Коллекция (3 CD) (ALAC)\(2013) Дети И Радуга (Переиздание 2013)\01. Лузер.wav
Длина предзазора 0:00:02.00
Пиковый уровень 100.0 %
Скорость извлечения 3.5 X
Качество трека 100.0 %
CRC теста 5898BC4B
CRC копии 5898BC4B
Трек не обнаружен в базе AccurateRip
Копирование... OK
Трек 2
Имя файла H:\Музон (Loseless)\Мои Рипы\Anacondaz - CD-Коллекция (3 CD) (ALAC)\(2013) Дети И Радуга (Переиздание 2013)\02. Фотошоп (Feat. Proff).wav
Пиковый уровень 100.0 %
Скорость извлечения 3.9 X
Качество трека 100.0 %
CRC теста A4F7ABA5
CRC копии A4F7ABA5
Трек не обнаружен в базе AccurateRip
Копирование... OK
Трек 3
Имя файла H:\Музон (Loseless)\Мои Рипы\Anacondaz - CD-Коллекция (3 CD) (ALAC)\(2013) Дети И Радуга (Переиздание 2013)\03. Корабль-Призрак.wav
Пиковый уровень 100.0 %
Скорость извлечения 4.0 X
Качество трека 100.0 %
CRC теста E106DF58
CRC копии E106DF58
Трек не обнаружен в базе AccurateRip
Копирование... OK
Трек 4
Имя файла H:\Музон (Loseless)\Мои Рипы\Anacondaz - CD-Коллекция (3 CD) (ALAC)\(2013) Дети И Радуга (Переиздание 2013)\04. Круглый Год.wav
Пиковый уровень 100.0 %
Скорость извлечения 4.4 X
Качество трека 100.0 %
CRC теста 1A2368A6
CRC копии 1A2368A6
Трек не обнаружен в базе AccurateRip
Копирование... OK
Трек 5
Имя файла H:\Музон (Loseless)\Мои Рипы\Anacondaz - CD-Коллекция (3 CD) (ALAC)\(2013) Дети И Радуга (Переиздание 2013)\05. Смертельное Оружие.wav
Пиковый уровень 100.0 %
Скорость извлечения 4.7 X
Качество трека 100.0 %
CRC теста 8B5BBBB6
CRC копии 8B5BBBB6
Трек не обнаружен в базе AccurateRip
Копирование... OK
Трек 6
Имя файла H:\Музон (Loseless)\Мои Рипы\Anacondaz - CD-Коллекция (3 CD) (ALAC)\(2013) Дети И Радуга (Переиздание 2013)\06. Радуга (Feat. RasKar).wav
Пиковый уровень 100.0 %
Скорость извлечения 4.8 X
Качество трека 100.0 %
CRC теста 9069C836
CRC копии 9069C836
Трек не обнаружен в базе AccurateRip
Копирование... OK
Трек 7
Имя файла H:\Музон (Loseless)\Мои Рипы\Anacondaz - CD-Коллекция (3 CD) (ALAC)\(2013) Дети И Радуга (Переиздание 2013)\07. Трус.wav
Пиковый уровень 100.0 %
Скорость извлечения 3.8 X
Качество трека 99.9 %
CRC теста D8D02D2D
CRC копии D8D02D2D
Трек не обнаружен в базе AccurateRip
Копирование... OK
Трек 8
Имя файла H:\Музон (Loseless)\Мои Рипы\Anacondaz - CD-Коллекция (3 CD) (ALAC)\(2013) Дети И Радуга (Переиздание 2013)\08. Грустный.wav
Пиковый уровень 100.0 %
Скорость извлечения 5.3 X
Качество трека 100.0 %
CRC теста 04C4EC31
CRC копии 04C4EC31
Трек не обнаружен в базе AccurateRip
Копирование... OK
Трек 9
Имя файла H:\Музон (Loseless)\Мои Рипы\Anacondaz - CD-Коллекция (3 CD) (ALAC)\(2013) Дети И Радуга (Переиздание 2013)\09. Этюд В Багровых Тонах.wav
Пиковый уровень 100.0 %
Скорость извлечения 5.4 X
Качество трека 100.0 %
CRC теста AB6DBEC1
CRC копии AB6DBEC1
Трек не обнаружен в базе AccurateRip
Копирование... OK
Трек 10
Имя файла H:\Музон (Loseless)\Мои Рипы\Anacondaz - CD-Коллекция (3 CD) (ALAC)\(2013) Дети И Радуга (Переиздание 2013)\10. Мой Муж.wav
Пиковый уровень 66.1 %
Скорость извлечения 3.5 X
Качество трека 99.9 %
CRC теста 6FCF6F07
CRC копии 6FCF6F07
Трек не обнаружен в базе AccurateRip
Копирование... OK
Трек 11
Имя файла H:\Музон (Loseless)\Мои Рипы\Anacondaz - CD-Коллекция (3 CD) (ALAC)\(2013) Дети И Радуга (Переиздание 2013)\11. Рассвет Мертвецов.wav
Пиковый уровень 100.0 %
Скорость извлечения 5.4 X
Качество трека 100.0 %
CRC теста 8F9BF7D0
CRC копии 8F9BF7D0
Трек не обнаружен в базе AccurateRip
Копирование... OK
Трек 12
Имя файла H:\Музон (Loseless)\Мои Рипы\Anacondaz - CD-Коллекция (3 CD) (ALAC)\(2013) Дети И Радуга (Переиздание 2013)\12. Панч На Панче.wav
Пиковый уровень 100.0 %
Скорость извлечения 4.6 X
Качество трека 99.9 %
CRC теста 9D44502E
CRC копии 9D44502E
Трек не обнаружен в базе AccurateRip
Копирование... OK
Трек 13
Имя файла H:\Музон (Loseless)\Мои Рипы\Anacondaz - CD-Коллекция (3 CD) (ALAC)\(2013) Дети И Радуга (Переиздание 2013)\13. Грязные Мысли.wav
Пиковый уровень 100.0 %
Скорость извлечения 5.6 X
Качество трека 100.0 %
CRC теста 71D864A8
CRC копии 71D864A8
Трек не обнаружен в базе AccurateRip
Копирование... OK
Трек 14
Имя файла H:\Музон (Loseless)\Мои Рипы\Anacondaz - CD-Коллекция (3 CD) (ALAC)\(2013) Дети И Радуга (Переиздание 2013)\14. Беляши.wav
Пиковый уровень 100.0 %
Скорость извлечения 5.9 X
Качество трека 100.0 %
CRC теста 30DE5386
CRC копии 30DE5386
Трек не обнаружен в базе AccurateRip
Копирование... OK
Трек 15
Имя файла H:\Музон (Loseless)\Мои Рипы\Anacondaz - CD-Коллекция (3 CD) (ALAC)\(2013) Дети И Радуга (Переиздание 2013)\15. Я Иду Гулять (Бриллианты Не Вечны).wav
Пиковый уровень 100.0 %
Скорость извлечения 7.4 X
Качество трека 100.0 %
CRC теста ABC220F7
CRC копии ABC220F7
Трек не обнаружен в базе AccurateRip
Копирование... OK
Ни одного трека нет в базе AccurateRip
Ошибок не произошло
Конец отчёта
---- CUETools DB Plugin V2.1.6
[CTDB TOCID: y0b4Cjyx66hiO9SmTAyYZQcofrg-] found
Submit result: y0b4Cjyx66hiO9SmTAyYZQcofrg- has been confirmed
Track | CTDB Status
1 | (1/1) Accurately ripped
2 | (1/1) Accurately ripped
3 | (1/1) Accurately ripped
4 | (1/1) Accurately ripped
5 | (1/1) Accurately ripped
6 | (1/1) Accurately ripped
7 | (1/1) Accurately ripped
8 | (1/1) Accurately ripped
9 | (1/1) Accurately ripped
10 | (1/1) Accurately ripped
11 | (1/1) Accurately ripped
12 | (1/1) Accurately ripped
13 | (1/1) Accurately ripped
14 | (1/1) Accurately ripped
15 | (1/1) Accurately ripped
==== Контрольная сумма отчёта 1D5F07745A4AF07714E9AA4D3455E5D315224FECB03C0BF2EE3BA737C82F37BD ====
Содержание индексной карты (.CUE)
REM GENRE Rap
REM DATE 2013
REM DISCID C50B660F
REM COMMENT "ExactAudioCopy v1.1"
PERFORMER "Anacondaz"
TITLE "Дети И Радуга"
FILE "01. Лузер.wav" WAVE
TRACK 01 AUDIO
TITLE "Лузер"
PERFORMER "Anacondaz"
INDEX 01 00:00:00
FILE "02. Фотошоп (Feat. Proff).wav" WAVE
TRACK 02 AUDIO
TITLE "Фотошоп (Feat. Proff)"
PERFORMER "Anacondaz"
INDEX 01 00:00:00
FILE "03. Корабль-Призрак.wav" WAVE
TRACK 03 AUDIO
TITLE "Корабль-Призрак"
PERFORMER "Anacondaz"
INDEX 01 00:00:00
FILE "04. Круглый Год.wav" WAVE
TRACK 04 AUDIO
TITLE "Круглый Год"
PERFORMER "Anacondaz"
INDEX 01 00:00:00
FILE "05. Смертельное Оружие.wav" WAVE
TRACK 05 AUDIO
TITLE "Смертельное Оружие"
PERFORMER "Anacondaz"
INDEX 01 00:00:00
FILE "06. Радуга (Feat. RasKar).wav" WAVE
TRACK 06 AUDIO
TITLE "Радуга (Feat. RasKar)"
PERFORMER "Anacondaz"
INDEX 01 00:00:00
FILE "07. Трус.wav" WAVE
TRACK 07 AUDIO
TITLE "Трус"
PERFORMER "Anacondaz"
INDEX 01 00:00:00
FILE "08. Грустный.wav" WAVE
TRACK 08 AUDIO
TITLE "Грустный"
PERFORMER "Anacondaz"
INDEX 01 00:00:00
FILE "09. Этюд В Багровых Тонах.wav" WAVE
TRACK 09 AUDIO
TITLE "Этюд В Багровых Тонах"
PERFORMER "Anacondaz"
INDEX 01 00:00:00
FILE "10. Мой Муж.wav" WAVE
TRACK 10 AUDIO
TITLE "Мой Муж"
PERFORMER "Anacondaz"
INDEX 01 00:00:00
FILE "11. Рассвет Мертвецов.wav" WAVE
TRACK 11 AUDIO
TITLE "Рассвет Мертвецов"
PERFORMER "Anacondaz"
INDEX 01 00:00:00
FILE "12. Панч На Панче.wav" WAVE
TRACK 12 AUDIO
TITLE "Панч На Панче"
PERFORMER "Anacondaz"
INDEX 01 00:00:00
FILE "13. Грязные Мысли.wav" WAVE
TRACK 13 AUDIO
TITLE "Грязные Мысли"
PERFORMER "Anacondaz"
INDEX 01 00:00:00
FILE "14. Беляши.wav" WAVE
TRACK 14 AUDIO
TITLE "Беляши"
PERFORMER "Anacondaz"
INDEX 01 00:00:00
FILE "15. Я Иду Гулять (Бриллианты Не Вечны).wav" WAVE
TRACK 15 AUDIO
TITLE "Я Иду Гулять (Бриллианты Не Вечны)"
PERFORMER "Anacondaz"
INDEX 01 00:00:00
Лог проверки качества
-----------------------
DON'T MODIFY THIS FILE
-----------------------
PERFORMER: auCDtect Task Manager, ver. 1.6.0 RC1 build 1.6.0.1
Copyright (c) 2008-2010 y-soft. All rights reserved
http://y-soft.org
ANALYZER: auCDtect: CD records authenticity detector, version 0.8.2
Copyright (c) 2004 Oleg Berngardt. All rights reserved.
Copyright (c) 2004 Alexander Djourik. All rights reserved.
FILE: 01. Лузер.m4a
Size: 22316811 Hash: B74BB10AA7E899CEE72687CA25335DC0 Accuracy: -m0
Conclusion: CDDA 100%
Signature: BBC5A217D95AB89C986C724F2B7CFAAD7C490CAF
FILE: 02. Фотошоп (Feat. Proff).m4a
Size: 24695880 Hash: 2365FA40C51973CD17C7D737B8313928 Accuracy: -m0
Conclusion: CDDA 100%
Signature: 8BEC7F88A7A77F4C63A576793C19F5DFF82B1D54
FILE: 03. Корабль-Призрак.m4a
Size: 20580476 Hash: 809F1B10B69CECB46239DE11ED797CFC Accuracy: -m0
Conclusion: CDDA 100%
Signature: 0BD43F140ABF833FDAA198CD2A195F7A4EEF6AEA
FILE: 04. Круглый Год.m4a
Size: 24718062 Hash: F7CE6692AA6AD893156F528A88751F5E Accuracy: -m0
Conclusion: CDDA 100%
Signature: C1DFF14634E16B58D4321F9F316026A3840ADA94
FILE: 05. Смертельное Оружие.m4a
Size: 30119819 Hash: B16E8C92437108416C9A3C7B04C1F181 Accuracy: -m0
Conclusion: CDDA 100%
Signature: A3ABBF927285C3BD8C56ADABF744FC9724832CFB
FILE: 06. Радуга (Feat. RasKar).m4a
Size: 23355648 Hash: ECD9925838AABB552CF5003536FFC822 Accuracy: -m0
Conclusion: CDDA 100%
Signature: 2D649E814F3A3F0A433A855356D9F19FE951495E
FILE: 07. Трус.m4a
Size: 22777967 Hash: 5ED09A5EA9B0E2FFB98ED0FB8C2F3A33 Accuracy: -m0
Conclusion: CDDA 99%
Signature: CD1220658B58AF85618611A3B29D5AE3884FC25A
FILE: 08. Грустный.m4a
Size: 24207013 Hash: FD0FFEC2569870C1EC6E061CE844D8AE Accuracy: -m0
Conclusion: CDDA 100%
Signature: 0931B356F71E6C448018B7E13BAFC0CC0796054F
FILE: 09. Этюд В Багровых Тонах.m4a
Size: 22525683 Hash: 0AD73BEEE4FA30854FC052D5FD602B23 Accuracy: -m0
Conclusion: CDDA 100%
Signature: 029C09640602DA492D94002357FF9DE1535CECA8
FILE: 10. Мой Муж.m4a
Size: 13650672 Hash: 68B307C119284379E7FE03B882665F1D Accuracy: -m0
Conclusion: MPEG 95%
Signature: 336EA7F1F513DEB9B33C7CBD5E33FBB3CF7FBAA4
FILE: 11. Рассвет Мертвецов.m4a
Size: 17245239 Hash: E64C4ACA9B905C72F4ECB64DA6D6B1F7 Accuracy: -m0
Conclusion: CDDA 100%
Signature: D7F464A7D4A5CAC5D5677DBF08D4AFE467D50E49
FILE: 12. Панч На Панче.m4a
Size: 23378588 Hash: A1D65ECE3263BFAFC4E1597CBD50E5BD Accuracy: -m0
Conclusion: CDDA 100%
Signature: A05E852557E257554F24AECA9CC8CEB6C999E968
FILE: 13. Грязные Мысли.m4a
Size: 18572079 Hash: 820D2340F9C6739117CA5E96F9C6393E Accuracy: -m0
Conclusion: CDDA 100%
Signature: 0157FC1D1006E66B86EDEAA56D8CB9EE85EE2CE0
FILE: 14. Беляши.m4a
Size: 16267774 Hash: 339EA38EA422E36B252240C15FB1986A Accuracy: -m0
Conclusion: CDDA 100%
Signature: 55F9464386355BD51B3647665D71992A52D60EF6
FILE: 15. Я Иду Гулять (Бриллианты Не Вечны).m4a
Size: 25475188 Hash: A31B8F5F788BB8F07CA8BB47620EDACF Accuracy: -m0
Conclusion: CDDA 100%
Signature: 79A832D47883923103B88EC1DFF0132A575E92B5
Скриншот спектра частот
Об альбоме (сборнике)
Дети и радуга — второй студийный альбом российской хип-хоп-группы Anacondaz, выпущенный в 2012 году на портале ThankYou.ru. В 2013 году, после подписания контракта с лейблом «Invisible Management», было выпущено переиздание.
Скриншоты
(2014) Без Паники
Издатель (лейбл): "Инвизибл Менеджмент" & ООО "Мистерия Плюс"
Номер по каталогу: CD-M+287-2/9
Продолжительность: 00:55:58


Треклист:
01. Карма (02:49)
02. Семь Миллиардов (03:50)
03. Автономный Генератор Жизни (02:55)
04. Линия Кармана (03:35)
05. Член (03:20)
06. Против Системы (03:42)
07. К Твоему Дому (04:04)
08. Акуле Плевать (04:15)
09. Фотосинтез (03:15)
10. Не Учи Меня Как Жить (02:06)
11. Стволы (Feat. Карандаш) (04:26)
12. Достоинство (Feat. My Autumn) (02:11)
13. Минуту (03:12)
14. Тесно (Feat. Зимавсегда) (03:24)
15. CDMM (03:09)
16. Море Волнуется (02:59)
17. Не Учи Меня Как Жить (Remix By Тони Вечер) (02:54)
Лог создания рипа
Exact Audio Copy V1.1 from 23. June 2015
Отчёт EAC об извлечении, выполненном 21. ноября 2016, 2:37
Anacondaz / Без Паники
Дисковод: HL-DT-STDVDRAM GP60NB60 Adapter: 1 ID: 1
Режим чтения : Достоверность
Использование точного потока : Да
Отключение кэша аудио : Да
Использование указателей C2 : Нет
Коррекция смещения при чтении : 6
Способность читать области Lead-in и Lead-out : Нет
Заполнение пропущенных сэмплов тишиной : Да
Удаление блоков с тишиной в начале и конце : Нет
При вычислениях CRC использовались нулевые сэмплы : Да
Интерфейс : Встроенный Win32-интерфейс для Win NT/2000
Обработка зазоров : Добавлено к предыдущему треку
Выходной формат : Пользовательский кодировщик
Выбранный битрейт : 128 kBit/s
Качество : Высокий
Добавление ID3-тега : Нет
Утилита сжатия : C:\Program Files\Foobar2000\encoders\refalac64.exe
Дополнительные параметры : -s --ignorelength --artist "%artist%" --composer "%composer%" --track "%tracknr%"/"%numtracks%" --disk "%cdnumber%"/"%totalcds%" --title "%title%" --album "%albumtitle%" --date "%year%" --genre "%genre%" %haslyrics%--lyrics "%lyricsfile%"%haslyrics% %hascover%--artwork "%coverfile%"%hascover% -o %dest% %source%
TOC извлечённого CD
Трек | Старт | Длительность | Начальный сектор | Конечный сектор
---------------------------------------------------------------------
1 | 0:00.00 | 2:49.09 | 0 | 12683
2 | 2:49.09 | 3:49.69 | 12684 | 29927
3 | 6:39.03 | 2:55.07 | 29928 | 43059
4 | 9:34.10 | 3:34.56 | 43060 | 59165
5 | 13:08.66 | 3:19.48 | 59166 | 74138
6 | 16:28.39 | 3:41.53 | 74139 | 90766
7 | 20:10.17 | 4:04.34 | 90767 | 109100
8 | 24:14.51 | 4:14.71 | 109101 | 128221
9 | 28:29.47 | 3:08.10 | 128222 | 142331
10 | 31:37.57 | 2:05.48 | 142332 | 151754
11 | 33:43.30 | 4:25.70 | 151755 | 171699
12 | 38:09.25 | 2:10.55 | 171700 | 181504
13 | 40:20.05 | 3:11.74 | 181505 | 195903
14 | 43:32.04 | 3:23.71 | 195904 | 211199
15 | 46:56.00 | 3:09.00 | 211200 | 225374
16 | 50:05.00 | 2:59.09 | 225375 | 238808
17 | 53:04.09 | 2:53.53 | 238809 | 251836
Трек 1
Имя файла H:\Музон (Loseless)\Мои Рипы\Anacondaz - CD-Коллекция (3 CD) (ALAC)\(2014) Без Паники\01. Карма.wav
Длина предзазора 0:00:02.00
Пиковый уровень 100.0 %
Скорость извлечения 2.4 X
Качество трека 100.0 %
CRC теста 868215E9
CRC копии 868215E9
Точное извлечение (достоверность 1) [6D5FF365] (AR v2)
Копирование... OK
Трек 2
Имя файла H:\Музон (Loseless)\Мои Рипы\Anacondaz - CD-Коллекция (3 CD) (ALAC)\(2014) Без Паники\02. Семь Миллиардов.wav
Пиковый уровень 100.0 %
Скорость извлечения 2.8 X
Качество трека 100.0 %
CRC теста 9B838F61
CRC копии 9B838F61
Точное извлечение (достоверность 1) [D70C105C] (AR v2)
Копирование... OK
Трек 3
Имя файла H:\Музон (Loseless)\Мои Рипы\Anacondaz - CD-Коллекция (3 CD) (ALAC)\(2014) Без Паники\03. Автономный Генератор Жизни.wav
Пиковый уровень 100.0 %
Скорость извлечения 2.9 X
Качество трека 100.0 %
CRC теста 124D81DB
CRC копии 124D81DB
Точное извлечение (достоверность 1) [0C71B3A9] (AR v2)
Копирование... OK
Трек 4
Имя файла H:\Музон (Loseless)\Мои Рипы\Anacondaz - CD-Коллекция (3 CD) (ALAC)\(2014) Без Паники\04. Линия Кармана.wav
Пиковый уровень 100.0 %
Скорость извлечения 3.2 X
Качество трека 100.0 %
CRC теста 6AC0754E
CRC копии 6AC0754E
Точное извлечение (достоверность 1) [31F21565] (AR v2)
Копирование... OK
Трек 5
Имя файла H:\Музон (Loseless)\Мои Рипы\Anacondaz - CD-Коллекция (3 CD) (ALAC)\(2014) Без Паники\05. Член.wav
Пиковый уровень 100.0 %
Скорость извлечения 3.4 X
Качество трека 100.0 %
CRC теста F6B3B13D
CRC копии F6B3B13D
Точное извлечение (достоверность 1) [D44D65C8] (AR v2)
Копирование... OK
Трек 6
Имя файла H:\Музон (Loseless)\Мои Рипы\Anacondaz - CD-Коллекция (3 CD) (ALAC)\(2014) Без Паники\06. Против Системы.wav
Пиковый уровень 100.0 %
Скорость извлечения 3.6 X
Качество трека 100.0 %
CRC теста 5EEE4F5E
CRC копии 5EEE4F5E
Точное извлечение (достоверность 1) [8970A5E3] (AR v2)
Копирование... OK
Трек 7
Имя файла H:\Музон (Loseless)\Мои Рипы\Anacondaz - CD-Коллекция (3 CD) (ALAC)\(2014) Без Паники\07. К Твоему Дому.wav
Пиковый уровень 100.0 %
Скорость извлечения 3.9 X
Качество трека 100.0 %
CRC теста F663F4D9
CRC копии F663F4D9
Точное извлечение (достоверность 1) [69099B4C] (AR v2)
Копирование... OK
Трек 8
Имя файла H:\Музон (Loseless)\Мои Рипы\Anacondaz - CD-Коллекция (3 CD) (ALAC)\(2014) Без Паники\08. Акуле Плевать.wav
Пиковый уровень 100.0 %
Скорость извлечения 3.6 X
Качество трека 99.9 %
CRC теста 944D9998
CRC копии 944D9998
Точное извлечение (достоверность 1) [C769C6B6] (AR v2)
Копирование... OK
Трек 9
Имя файла H:\Музон (Loseless)\Мои Рипы\Anacondaz - CD-Коллекция (3 CD) (ALAC)\(2014) Без Паники\09. Фотосинтез.wav
Пиковый уровень 100.0 %
Скорость извлечения 4.1 X
Качество трека 100.0 %
CRC теста D8039F6F
CRC копии D8039F6F
Точное извлечение (достоверность 1) [2F149946] (AR v2)
Копирование... OK
Трек 10
Имя файла H:\Музон (Loseless)\Мои Рипы\Anacondaz - CD-Коллекция (3 CD) (ALAC)\(2014) Без Паники\10. Не Учи Меня Как Жить.wav
Пиковый уровень 100.0 %
Скорость извлечения 3.9 X
Качество трека 100.0 %
CRC теста E96AA9C0
CRC копии E96AA9C0
Точное извлечение (достоверность 1) [A2C07D8D] (AR v2)
Копирование... OK
Трек 11
Имя файла H:\Музон (Loseless)\Мои Рипы\Anacondaz - CD-Коллекция (3 CD) (ALAC)\(2014) Без Паники\11. Стволы (Feat. Карандаш).wav
Пиковый уровень 100.0 %
Скорость извлечения 4.1 X
Качество трека 99.9 %
CRC теста 4EE14B77
CRC копии 4EE14B77
Точное извлечение (достоверность 1) [E38236BE] (AR v2)
Копирование... OK
Трек 12
Имя файла H:\Музон (Loseless)\Мои Рипы\Anacondaz - CD-Коллекция (3 CD) (ALAC)\(2014) Без Паники\12. Достоинство (Feat. My Autumn).wav
Пиковый уровень 100.0 %
Скорость извлечения 4.1 X
Качество трека 100.0 %
CRC теста 85E777BD
CRC копии 85E777BD
Точное извлечение (достоверность 1) [5533B70C] (AR v2)
Копирование... OK
Трек 13
Имя файла H:\Музон (Loseless)\Мои Рипы\Anacondaz - CD-Коллекция (3 CD) (ALAC)\(2014) Без Паники\13. Минуту.wav
Пиковый уровень 100.0 %
Скорость извлечения 4.6 X
Качество трека 100.0 %
CRC теста E6250B79
CRC копии E6250B79
Точное извлечение (достоверность 1) [4EF19F76] (AR v2)
Копирование... OK
Трек 14
Имя файла H:\Музон (Loseless)\Мои Рипы\Anacondaz - CD-Коллекция (3 CD) (ALAC)\(2014) Без Паники\14. Тесно (Feat. Зимавсегда).wav
Пиковый уровень 100.0 %
Скорость извлечения 4.8 X
Качество трека 100.0 %
CRC теста 163BAA52
CRC копии 163BAA52
Точное извлечение (достоверность 1) [0C5CFC41] (AR v2)
Копирование... OK
Трек 15
Имя файла H:\Музон (Loseless)\Мои Рипы\Anacondaz - CD-Коллекция (3 CD) (ALAC)\(2014) Без Паники\15. CDMM.wav
Пиковый уровень 100.0 %
Скорость извлечения 4.8 X
Качество трека 100.0 %
CRC теста 2729B0B3
CRC копии 2729B0B3
Точное извлечение (достоверность 1) [E45B3A86] (AR v2)
Копирование... OK
Трек 16
Имя файла H:\Музон (Loseless)\Мои Рипы\Anacondaz - CD-Коллекция (3 CD) (ALAC)\(2014) Без Паники\16. Море Волнуется.wav
Пиковый уровень 100.0 %
Скорость извлечения 4.9 X
Качество трека 100.0 %
CRC теста B723C47A
CRC копии B723C47A
Точное извлечение (достоверность 1) [8DD1BFB2] (AR v2)
Копирование... OK
Трек 17
Имя файла H:\Музон (Loseless)\Мои Рипы\Anacondaz - CD-Коллекция (3 CD) (ALAC)\(2014) Без Паники\17. Не Учи Меня Как Жить (Remix By Тони Вечер).wav
Пиковый уровень 100.0 %
Скорость извлечения 4.9 X
Качество трека 100.0 %
CRC теста BC48C102
CRC копии BC48C102
Точное извлечение (достоверность 1) [B378BE0F] (AR v2)
Копирование... OK
Все треки извлечены точно
Ошибок не произошло
Конец отчёта
---- CUETools DB Plugin V2.1.6
[CTDB TOCID: 6Xxt4HQ0Ad.7bNsxnJ4rY7HvZQA-] found
Submit result: 6Xxt4HQ0Ad.7bNsxnJ4rY7HvZQA- has been confirmed
Track | CTDB Status
1 | (4/4) Accurately ripped
2 | (4/4) Accurately ripped
3 | (4/4) Accurately ripped
4 | (4/4) Accurately ripped
5 | (4/4) Accurately ripped
6 | (4/4) Accurately ripped
7 | (4/4) Accurately ripped
8 | (4/4) Accurately ripped
9 | (4/4) Accurately ripped
10 | (4/4) Accurately ripped
11 | (4/4) Accurately ripped
12 | (4/4) Accurately ripped
13 | (4/4) Accurately ripped
14 | (4/4) Accurately ripped
15 | (4/4) Accurately ripped
16 | (4/4) Accurately ripped
17 | (4/4) Accurately ripped
==== Контрольная сумма отчёта 1A5C1B726C3B79DB3B33A52A9566BAE5A204B7ABB3ED7F93C07C673168E0442D ====
Содержание индексной карты (.CUE)
REM GENRE Rap
REM DATE 2014
REM DISCID DC0D1D11
REM COMMENT "ExactAudioCopy v1.1"
PERFORMER "Anacondaz"
TITLE "Без Паники"
FILE "01. Карма.wav" WAVE
TRACK 01 AUDIO
TITLE "Карма"
PERFORMER "Anacondaz"
FLAGS DCP
INDEX 01 00:00:00
FILE "02. Семь Миллиардов.wav" WAVE
TRACK 02 AUDIO
TITLE "Семь Миллиардов"
PERFORMER "Anacondaz"
FLAGS DCP
INDEX 01 00:00:00
FILE "03. Автономный Генератор Жизни.wav" WAVE
TRACK 03 AUDIO
TITLE "Автономный Генератор Жизни"
PERFORMER "Anacondaz"
FLAGS DCP
INDEX 01 00:00:00
FILE "04. Линия Кармана.wav" WAVE
TRACK 04 AUDIO
TITLE "Линия Кармана"
PERFORMER "Anacondaz"
FLAGS DCP
INDEX 01 00:00:00
FILE "05. Член.wav" WAVE
TRACK 05 AUDIO
TITLE "Член"
PERFORMER "Anacondaz"
FLAGS DCP
INDEX 01 00:00:00
FILE "06. Против Системы.wav" WAVE
TRACK 06 AUDIO
TITLE "Против Системы"
PERFORMER "Anacondaz"
FLAGS DCP
INDEX 01 00:00:00
FILE "07. К Твоему Дому.wav" WAVE
TRACK 07 AUDIO
TITLE "К Твоему Дому"
PERFORMER "Anacondaz"
FLAGS DCP
INDEX 01 00:00:00
FILE "08. Акуле Плевать.wav" WAVE
TRACK 08 AUDIO
TITLE "Акуле Плевать"
PERFORMER "Anacondaz"
FLAGS DCP
INDEX 01 00:00:00
FILE "09. Фотосинтез.wav" WAVE
TRACK 09 AUDIO
TITLE "Фотосинтез"
PERFORMER "Anacondaz"
FLAGS DCP
INDEX 01 00:00:00
FILE "10. Не Учи Меня Как Жить.wav" WAVE
TRACK 10 AUDIO
TITLE "Не Учи Меня Как Жить"
PERFORMER "Anacondaz"
FLAGS DCP
INDEX 01 00:00:00
FILE "11. Стволы (Feat. Карандаш).wav" WAVE
TRACK 11 AUDIO
TITLE "Стволы (Feat. Карандаш)"
PERFORMER "Anacondaz"
FLAGS DCP
INDEX 01 00:00:00
FILE "12. Достоинство (Feat. My Autumn).wav" WAVE
TRACK 12 AUDIO
TITLE "Достоинство (Feat. My Autumn)"
PERFORMER "Anacondaz"
FLAGS DCP
INDEX 01 00:00:00
FILE "13. Минуту.wav" WAVE
TRACK 13 AUDIO
TITLE "Минуту"
PERFORMER "Anacondaz"
FLAGS DCP
INDEX 01 00:00:00
FILE "14. Тесно (Feat. Зимавсегда).wav" WAVE
TRACK 14 AUDIO
TITLE "Тесно (Feat. Зимавсегда)"
PERFORMER "Anacondaz"
FLAGS DCP
INDEX 01 00:00:00
FILE "15. CDMM.wav" WAVE
TRACK 15 AUDIO
TITLE "CDMM"
PERFORMER "Anacondaz"
FLAGS DCP
INDEX 01 00:00:00
FILE "16. Море Волнуется.wav" WAVE
TRACK 16 AUDIO
TITLE "Море Волнуется"
PERFORMER "Anacondaz"
FLAGS DCP
INDEX 01 00:00:00
FILE "17. Не Учи Меня Как Жить (Remix By Тони Вечер).wav" WAVE
TRACK 17 AUDIO
TITLE "Не Учи Меня Как Жить (Remix By Тони Вечер)"
PERFORMER "Anacondaz"
FLAGS DCP
INDEX 01 00:00:00
Лог проверки качества
-----------------------
DON'T MODIFY THIS FILE
-----------------------
PERFORMER: auCDtect Task Manager, ver. 1.6.0 RC1 build 1.6.0.1
Copyright (c) 2008-2010 y-soft. All rights reserved
http://y-soft.org
ANALYZER: auCDtect: CD records authenticity detector, version 0.8.2
Copyright (c) 2004 Oleg Berngardt. All rights reserved.
Copyright (c) 2004 Alexander Djourik. All rights reserved.
FILE: 01. Карма.m4a
Size: 19265724 Hash: ECB95353990CD1C7FD2D8E9B25577354 Accuracy: -m0
Conclusion: CDDA 100%
Signature: 3A1A10576557F408BA6C6394C2150AE491B38B11
FILE: 02. Семь Миллиардов.m4a
Size: 26230966 Hash: 0749947C58075F60D90B829D6686F917 Accuracy: -m0
Conclusion: CDDA 100%
Signature: 3CB6825742F138FD6E4D628E9874EC7998202CDA
FILE: 03. Автономный Генератор Жизни.m4a
Size: 18908841 Hash: F5BCD9FB4C27CD8962560824B253596B Accuracy: -m0
Conclusion: CDDA 99%
Signature: 00D4FC63B410F8EA93B0F533418D9F60C8D0D381
FILE: 04. Линия Кармана.m4a
Size: 24173459 Hash: 1526ABF79CAB731D5D20E97475BEA144 Accuracy: -m0
Conclusion: CDDA 100%
Signature: A4F745B1C155484CE08CB884C026EF8754DD5FC5
FILE: 05. Член.m4a
Size: 24128346 Hash: B028020CC50B7EDC46FC7534F817F5CF Accuracy: -m0
Conclusion: CDDA 100%
Signature: 5AA7132930FF612167BEE37292D45ED4FDDAE779
FILE: 06. Против Системы.m4a
Size: 26780914 Hash: 0085C6AF34F2C321346A27762FBAC5C5 Accuracy: -m0
Conclusion: CDDA 100%
Signature: 6EE44291A26662B68F217C760DFE74A5FFA4A519
FILE: 07. К Твоему Дому.m4a
Size: 27226299 Hash: 26552D87E553D382718E340F07F64D09 Accuracy: -m0
Conclusion: CDDA 100%
Signature: D5523D62DBBA04BB9C270A4CB5F602EC1AA66896
FILE: 08. Акуле Плевать.m4a
Size: 29976607 Hash: 9CD006E79E70061634766A8E0B50186C Accuracy: -m0
Conclusion: MPEG 95%
Signature: 3D0E5910B1F135CA8E6C677AD7C05F0139144643
FILE: 09. Фотосинтез.m4a
Size: 22265252 Hash: 9549C6F0E66E5AEBF2FB95E358D4A2B3 Accuracy: -m0
Conclusion: CDDA 100%
Signature: 7E134592E2C237D9DDC57A3E450C51BA0B8367E4
FILE: 10. Не Учи Меня Как Жить.m4a
Size: 15127354 Hash: 7DF4192D547693B12C5006B82DB33495 Accuracy: -m0
Conclusion: CDDA 100%
Signature: 6EDC3F0289DD2D968D42087CFBA856B97AFE70C7
FILE: 11. Стволы (Feat. Каранадаш).m4a
Size: 30671489 Hash: B5A61C43634209B4AF59C53A356E97C4 Accuracy: -m0
Conclusion: CDDA 100%
Signature: 8D2A1F3F378E6C884449058CFECE842655C3EC6C
FILE: 12. Достоинство (Feat. My Autumn).m4a
Size: 15975592 Hash: FB1F98C7156DD5387E10A8EA18288F4B Accuracy: -m0
Conclusion: CDDA 100%
Signature: 414A9959EF6606394489023D5F358F62BA61C191
FILE: 13. Минуту.m4a
Size: 23795424 Hash: 0E15E1CE1A21874253363739BB609BDD Accuracy: -m0
Conclusion: CDDA 100%
Signature: 509411D5EC61B0F3B54C51E47B6FD59446B8910C
FILE: 14. Тесно (Feat. Зимавсегда).m4a
Size: 24622480 Hash: 0CA6394648180170050C056DB841500C Accuracy: -m0
Conclusion: CDDA 100%
Signature: 206ABD695C09C3918920389C38737055D4AB0526
FILE: 15. CDMM.m4a
Size: 22467164 Hash: EEAB30308CEB12E9C8B63FC5DDD90684 Accuracy: -m0
Conclusion: CDDA 99%
Signature: 84AFD5AB729BCDF38E1161A3C75AD352F83C2763
FILE: 16. Море Волнуется.m4a
Size: 20668473 Hash: 09B29EA19A5DB9BB9560CB363D57BAB6 Accuracy: -m0
Conclusion: CDDA 99%
Signature: AA11D789DDAF6DC6B8744ED043E76DB35BC75BCF
FILE: 17. Не Учи Меня Как Жить (Remix By Тони Вечер).m4a
Size: 20066969 Hash: 88E4B02DA6CA358D055CAE25F69E2E97 Accuracy: -m0
Conclusion: CDDA 99%
Signature: AE02C083FE8E70F3498F0F30194E01D40AC3EE17
Скриншот спектра частот
Об альбоме (сборнике)
Без паники — третий студийный альбом российской рэп-группы Anacondaz, выпущенный в 2014 году.
Запись и сведение альбома были закончены в конце 2013 года. На деньги собранные через сайт «Planeta.ru» — русский аналог Kickstarter — в Лондоне был произведён профессиональный мастеринг будущей пластинки.
В целом, рецензенты положительно оценили возросшие музыкальный уровень группы и качество записи по сравнению с предыдущими релизами. Однако, также были высказаны мысли по поводу того, что альбому не суждено стать «знаковым» или «поворотным» в судьбе группы, но поклонникам группы он должен прийтись по вкусу.
Другими же, наоборот, был отмечен переход к более «гитарному» звучанию и экспериментам с жанровой составляющей. В связи с этим высказывались опасения, что это может не понравиться тем поклонникам группы, «кто ратует за чистоту рэпа, за его традиционные ценности и классический вид».
В период с 27 января по 2 февраля 2014 года достиг четвёртой строки в российском чарте iTunes.
Скриншоты
(2015) Байки Инсайдера
Издатель (лейбл): ООО "Мистерия Плюс"
Номер по каталогу: CD-M+380-2
Продолжительность: 00:51:23


Треклист:
01. Мама, Я Люблю (03:45)
02. Полный (02:33)
03. Мне Мне Мне (03:53)
04. Сон (02:38)
05. Средний Палец (04:24)
06. Бесит (02:30)
07. Вызывай (02:37)
08. Факап (03:25)
09. Пока Не Готов (Feat. Саша rAp) (04:14)
10. Тёлки Тачки (Feat. Зимавсегда) (04:25)
11. Не Моё (03:13)
12. Узор (03:19)
13. Честный Обмен (02:57)
14. Комментарий (03:06)
15. Мотоципл (04:23)
Лог создания рипа
Exact Audio Copy V1.1 from 23. June 2015
Отчёт EAC об извлечении, выполненном 15. марта 2016, 20:25
Anacondaz / Байки Инсайдера
Дисковод: TSSTcorpCDDVDW SN-208BB Adapter: 1 ID: 0
Режим чтения : Достоверность
Использование точного потока : Да
Отключение кэша аудио : Да
Использование указателей C2 : Нет
Коррекция смещения при чтении : 6
Способность читать области Lead-in и Lead-out : Нет
Заполнение пропущенных сэмплов тишиной : Да
Удаление блоков с тишиной в начале и конце : Нет
При вычислениях CRC использовались нулевые сэмплы : Да
Интерфейс : Встроенный Win32-интерфейс для Win NT/2000
Обработка зазоров : Добавлено к предыдущему треку
Выходной формат : Пользовательский кодировщик
Выбранный битрейт : 128 kBit/s
Качество : Высокий
Добавление ID3-тега : Нет
Утилита сжатия : C:\Program Files\Foobar2000\encoders\refalac64.exe
Дополнительные параметры : -s --ignorelength --artist "%artist%" --composer "%composer%" --track "%tracknr%"/"%numtracks%" --disk "%cdnumber%"/"%totalcds%" --title "%title%" --album "%albumtitle%" --date "%year%" --genre "%genre%" %haslyrics%--lyrics "%lyricsfile%"%haslyrics% %hascover%--artwork "%coverfile%"%hascover% -o %dest% %source%
TOC извлечённого CD
Трек | Старт | Длительность | Начальный сектор | Конечный сектор
---------------------------------------------------------------------
1 | 0:00.00 | 3:44.70 | 0 | 16869
2 | 3:44.70 | 2:33.25 | 16870 | 28369
3 | 6:18.20 | 3:53.05 | 28370 | 45849
4 | 10:11.25 | 2:38.08 | 45850 | 57707
5 | 12:49.33 | 4:24.28 | 57708 | 77535
6 | 17:13.61 | 2:30.23 | 77536 | 88808
7 | 19:44.09 | 2:36.41 | 88809 | 100549
8 | 22:20.50 | 3:25.25 | 100550 | 115949
9 | 25:46.00 | 4:14.10 | 115950 | 135009
10 | 30:00.10 | 4:25.19 | 135010 | 154903
11 | 34:25.29 | 3:13.07 | 154904 | 169385
12 | 37:38.36 | 3:18.56 | 169386 | 184291
13 | 40:57.17 | 2:57.05 | 184292 | 197571
14 | 43:54.22 | 3:05.51 | 197572 | 211497
15 | 46:59.73 | 4:22.60 | 211498 | 231207
Трек 1
Имя файла C:\Users\Александр Фильченко\Documents\(2015) Байки Инсайдера\01. Мама, Я Люблю.wav
Длина предзазора 0:00:02.00
Пиковый уровень 88.6 %
Скорость извлечения 1.8 X
Качество трека 100.0 %
CRC теста B5A506E4
CRC копии B5A506E4
Трек не обнаружен в базе AccurateRip
Копирование... OK
Трек 2
Имя файла C:\Users\Александр Фильченко\Documents\(2015) Байки Инсайдера\02. Полный.wav
Пиковый уровень 75.2 %
Скорость извлечения 1.5 X
Качество трека 99.9 %
CRC теста 0FC0174F
CRC копии 0FC0174F
Трек не обнаружен в базе AccurateRip
Копирование... OK
Трек 3
Имя файла C:\Users\Александр Фильченко\Documents\(2015) Байки Инсайдера\03. Мне Мне Мне.wav
Пиковый уровень 67.4 %
Скорость извлечения 1.8 X
Качество трека 99.9 %
CRC теста 199B0C69
CRC копии 199B0C69
Трек не обнаружен в базе AccurateRip
Копирование... OK
Трек 4
Имя файла C:\Users\Александр Фильченко\Documents\(2015) Байки Инсайдера\04. Сон.wav
Пиковый уровень 55.2 %
Скорость извлечения 2.1 X
Качество трека 100.0 %
CRC теста 96BF67AD
CRC копии 96BF67AD
Трек не обнаружен в базе AccurateRip
Копирование... OK
Трек 5
Имя файла C:\Users\Александр Фильченко\Documents\(2015) Байки Инсайдера\05. Средний Палец.wav
Пиковый уровень 46.5 %
Скорость извлечения 2.4 X
Качество трека 100.0 %
CRC теста 52B12745
CRC копии 52B12745
Трек не обнаружен в базе AccurateRip
Копирование... OK
Трек 6
Имя файла C:\Users\Александр Фильченко\Documents\(2015) Байки Инсайдера\06. Бесит.wav
Пиковый уровень 100.0 %
Скорость извлечения 2.3 X
Качество трека 100.0 %
CRC теста E86A10D0
CRC копии E86A10D0
Трек не обнаружен в базе AccurateRip
Копирование... OK
Трек 7
Имя файла C:\Users\Александр Фильченко\Documents\(2015) Байки Инсайдера\07. Вызывай.wav
Пиковый уровень 97.2 %
Скорость извлечения 2.4 X
Качество трека 100.0 %
CRC теста 25BFF5D8
CRC копии 25BFF5D8
Трек не обнаружен в базе AccurateRip
Копирование... OK
Трек 8
Имя файла C:\Users\Александр Фильченко\Documents\(2015) Байки Инсайдера\08. Факап.wav
Пиковый уровень 59.9 %
Скорость извлечения 2.6 X
Качество трека 100.0 %
CRC теста 0D4E614B
CRC копии 0D4E614B
Трек не обнаружен в базе AccurateRip
Копирование... OK
Трек 9
Имя файла C:\Users\Александр Фильченко\Documents\(2015) Байки Инсайдера\09. Пока Не Готов (Feat. Саша rAp).wav
Пиковый уровень 83.3 %
Скорость извлечения 2.8 X
Качество трека 100.0 %
CRC теста BBB231E2
CRC копии BBB231E2
Трек не обнаружен в базе AccurateRip
Копирование... OK
Трек 10
Имя файла C:\Users\Александр Фильченко\Documents\(2015) Байки Инсайдера\10. Тёлки Тачки (Feat. Зимавсегда).wav
Пиковый уровень 65.2 %
Скорость извлечения 2.6 X
Качество трека 99.9 %
CRC теста 6B41E2FC
CRC копии 6B41E2FC
Трек не обнаружен в базе AccurateRip
Копирование... OK
Трек 11
Имя файла C:\Users\Александр Фильченко\Documents\(2015) Байки Инсайдера\11. Не Моё.wav
Пиковый уровень 86.3 %
Скорость извлечения 2.9 X
Качество трека 100.0 %
CRC теста 1AD9BFD4
CRC копии 1AD9BFD4
Трек не обнаружен в базе AccurateRip
Копирование... OK
Трек 12
Имя файла C:\Users\Александр Фильченко\Documents\(2015) Байки Инсайдера\12. Узор.wav
Пиковый уровень 82.8 %
Скорость извлечения 3.0 X
Качество трека 100.0 %
CRC теста 6E8384FC
CRC копии 6E8384FC
Трек не обнаружен в базе AccurateRip
Копирование... OK
Трек 13
Имя файла C:\Users\Александр Фильченко\Documents\(2015) Байки Инсайдера\13. Честный Обмен.wav
Пиковый уровень 74.6 %
Скорость извлечения 3.0 X
Качество трека 100.0 %
CRC теста F205B03D
CRC копии F205B03D
Трек не обнаружен в базе AccurateRip
Копирование... OK
Трек 14
Имя файла C:\Users\Александр Фильченко\Documents\(2015) Байки Инсайдера\14. Комментарий.wav
Пиковый уровень 62.8 %
Скорость извлечения 3.2 X
Качество трека 100.0 %
CRC теста DB25A0B1
CRC копии DB25A0B1
Трек не обнаружен в базе AccurateRip
Копирование... OK
Трек 15
Имя файла C:\Users\Александр Фильченко\Documents\(2015) Байки Инсайдера\15. Мотоципл.wav
Пиковый уровень 100.0 %
Скорость извлечения 3.4 X
Качество трека 100.0 %
CRC теста FDDED927
CRC копии FDDED927
Трек не обнаружен в базе AccurateRip
Копирование... OK
Ни одного трека нет в базе AccurateRip
Ошибок не произошло
Конец отчёта
---- CUETools DB Plugin V2.1.6
[CTDB TOCID: n_H9XNPuLoXuhPRgxD7kDQz4ipo-] found
Submit result: n_H9XNPuLoXuhPRgxD7kDQz4ipo- has been confirmed
Track | CTDB Status
1 | (1/1) Accurately ripped
2 | (1/1) Accurately ripped
3 | (1/1) Accurately ripped
4 | (1/1) Accurately ripped
5 | (1/1) Accurately ripped
6 | (1/1) Accurately ripped
7 | (1/1) Accurately ripped
8 | (1/1) Accurately ripped
9 | (1/1) Accurately ripped
10 | (1/1) Accurately ripped
11 | (1/1) Accurately ripped
12 | (1/1) Accurately ripped
13 | (1/1) Accurately ripped
14 | (1/1) Accurately ripped
15 | (1/1) Accurately ripped
==== Контрольная сумма отчёта 73B30944E15D4CFF763A8536C80ABBE0DB86CAB48FCB4CA5DD2807F270DF4A4E ====
Содержание индексной карты (.CUE)
REM GENRE Rap
REM DATE 2015
REM DISCID BB0C0A0F
REM COMMENT "ExactAudioCopy v1.1"
PERFORMER "Anacondaz"
TITLE "Байки Инсайдера"
FILE "01. Мама, Я Люблю.wav" WAVE
TRACK 01 AUDIO
TITLE "Мама, Я Люблю"
PERFORMER "Anacondaz"
INDEX 01 00:00:00
FILE "02. Полный.wav" WAVE
TRACK 02 AUDIO
TITLE "Полный"
PERFORMER "Anacondaz"
INDEX 01 00:00:00
FILE "03. Мне Мне Мне.wav" WAVE
TRACK 03 AUDIO
TITLE "Мне Мне Мне"
PERFORMER "Anacondaz"
INDEX 01 00:00:00
FILE "04. Сон.wav" WAVE
TRACK 04 AUDIO
TITLE "Сон"
PERFORMER "Anacondaz"
INDEX 01 00:00:00
FILE "05. Средний Палец.wav" WAVE
TRACK 05 AUDIO
TITLE "Средний Палец"
PERFORMER "Anacondaz"
INDEX 01 00:00:00
FILE "06. Бесит.wav" WAVE
TRACK 06 AUDIO
TITLE "Бесит"
PERFORMER "Anacondaz"
INDEX 01 00:00:00
FILE "07. Вызывай.wav" WAVE
TRACK 07 AUDIO
TITLE "Вызывай"
PERFORMER "Anacondaz"
INDEX 01 00:00:00
FILE "08. Факап.wav" WAVE
TRACK 08 AUDIO
TITLE "Факап"
PERFORMER "Anacondaz"
INDEX 01 00:00:00
FILE "09. Пока Не Готов (Feat. Саша rAp).wav" WAVE
TRACK 09 AUDIO
TITLE "Пока Не Готов (Feat. Саша rAp)"
PERFORMER "Anacondaz"
INDEX 01 00:00:00
FILE "10. Тёлки Тачки (Feat. Зимавсегда).wav" WAVE
TRACK 10 AUDIO
TITLE "Тёлки Тачки (Feat. Зимавсегда)"
PERFORMER "Anacondaz"
INDEX 01 00:00:00
FILE "11. Не Моё.wav" WAVE
TRACK 11 AUDIO
TITLE "Не Моё"
PERFORMER "Anacondaz"
INDEX 01 00:00:00
FILE "12. Узор.wav" WAVE
TRACK 12 AUDIO
TITLE "Узор"
PERFORMER "Anacondaz"
INDEX 01 00:00:00
FILE "13. Честный Обмен.wav" WAVE
TRACK 13 AUDIO
TITLE "Честный Обмен"
PERFORMER "Anacondaz"
INDEX 01 00:00:00
FILE "14. Комментарий.wav" WAVE
TRACK 14 AUDIO
TITLE "Комментарий"
PERFORMER "Anacondaz"
INDEX 01 00:00:00
FILE "15. Мотоципл.wav" WAVE
TRACK 15 AUDIO
TITLE "Мотоципл"
PERFORMER "Anacondaz"
INDEX 01 00:00:00
Лог проверки качества
-----------------------
DON'T MODIFY THIS FILE
-----------------------
PERFORMER: auCDtect Task Manager, ver. 1.6.0 RC1 build 1.6.0.1
Copyright (c) 2008-2010 y-soft. All rights reserved
http://y-soft.org
ANALYZER: auCDtect: CD records authenticity detector, version 0.8.2
Copyright (c) 2004 Oleg Berngardt. All rights reserved.
Copyright (c) 2004 Alexander Djourik. All rights reserved.
FILE: 01. Мама, Я Люблю.m4a
Size: 22183748 Hash: DAFFDA54B3E31F13E04BE0E03865F3D2 Accuracy: -m0
Conclusion: CDDA 100%
Signature: 1B0150265E652BE64CE5CF4F8D60A8DB32ABF3E3
FILE: 02. Полный.m4a
Size: 13896324 Hash: 120D6D2FE342B97686A98612B13EC193 Accuracy: -m0
Conclusion: CDDA 99%
Signature: 26021A6A13E6A6EB8F0BDA6B0843D8C749B31B89
FILE: 03. Мне Мне Мне.m4a
Size: 20244987 Hash: A5A334B61BB37CF94636AD8E008D8D9B Accuracy: -m0
Conclusion: CDDA 100%
Signature: 2A1B3B47039ACD6C22034D8C79929F3AF7A3E415
FILE: 04. Сон.m4a
Size: 12582100 Hash: 2123E1867F46B2E4F72C146553EECB75 Accuracy: -m0
Conclusion: CDDA 100%
Signature: 2111CD0DA06C6B3A9BC7A08355E08B2E0E02C28D
FILE: 05. Средний Палец.m4a
Size: 23048128 Hash: 30818F60C12D9DCFB9468E4114CA889C Accuracy: -m0
Conclusion: CDDA 100%
Signature: B9AC4E4F6EF9125D4BB88999D6274FA22217D5A3
FILE: 06. Бесит.m4a
Size: 15249526 Hash: 027059F03A141327D56B8F79866EE232 Accuracy: -m0
Conclusion: CDDA 100%
Signature: 0B5BDB1A1EA8558EFDD600F50B4B7C33E2B24E09
FILE: 07. Вызывай.m4a
Size: 14589457 Hash: 87D9A89363DBCF3D9AB00945554A965F Accuracy: -m0
Conclusion: CDDA 100%
Signature: D666F7445856DDB4E83ED842D6168775DAEF293D
FILE: 08. Факап.m4a
Size: 17721740 Hash: 6746805739BE2C431FC73566C1E53BA1 Accuracy: -m0
Conclusion: CDDA 100%
Signature: 87D872C908B2A9A043F2A3A9D5EB95BAF3318E47
FILE: 09. Пока Не Готов (Feat. Саша rAp).m4a
Size: 21547199 Hash: F1126A8C582CD4EFD4707ACF0A551D74 Accuracy: -m0
Conclusion: CDDA 100%
Signature: 6E71E9A19CA8B0EC56C74107181AA3F23E2525D1
FILE: 10. Тёлки Тачки (Feat. Зимавсегда).m4a
Size: 23285823 Hash: 954D6627E2600A3EED02AF58B7EBA680 Accuracy: -m0
Conclusion: CDDA 99%
Signature: FBE5623B0240C8A2AF5750F1066B12878DEBDB3A
FILE: 11. Не Моё.m4a
Size: 19153647 Hash: 385D1794B7DBB15AE3FED3A87FF4F4BC Accuracy: -m0
Conclusion: CDDA 100%
Signature: E2177E7F20B41DC9E4DF14FDC0BBB5A295E652F1
FILE: 12. Узор.m4a
Size: 20944327 Hash: 42E1D82777807370492B5342ACAF2900 Accuracy: -m0
Conclusion: CDDA 100%
Signature: CF72D29183C6AB62D583BBFA60A61556A1AC8EEC
FILE: 13. Честный Обмен.m4a
Size: 17793254 Hash: EA895633F7B606A4DE0AC0F578E31379 Accuracy: -m0
Conclusion: CDDA 100%
Signature: A325044E8945D4F37949035FA20537D56E349607
FILE: 14. Комментарий.m4a
Size: 16649300 Hash: 92493D1324DC439402452A75B4A6C1DF Accuracy: -m0
Conclusion: CDDA 100%
Signature: 96B71391C9A0C3EEA3D54F5195ECE7891FFAA506
FILE: 15. Мотоципл.m4a
Size: 30046036 Hash: 0536C3EE72793C5208F05AF0BF7D974E Accuracy: -m0
Conclusion: CDDA 100%
Signature: 05038F4E2B23B6C98BACEFD12523A80091B9896D
Скриншот спектра частот
Об альбоме (сборнике)
Байки инсайдера — четвёртый студийный альбом российской рэп-группы Anacondaz, выпущенный в 2015 году.
Выход альбома был предзнаменован выпуском весной и летом 2015 года синглов «Вызывай», «Бесит» и «Мотоципл», а также клипов на них. В сентябре, непосредственно перед выходом альбома, был выпущен сингл «Мне мне мне» и клип на него. В интервью порталу Rap.ru была объявлена дата релиза пластинки — 24 сентября. Как и в случае с предыдущим альбомом, деньги на запись были собраны при помощи краудфандингового проекта на сайте Planeta.ru. Причём, требуемая сумма в двести тысяч рублей была собрана за сутки, а всего на запись альбома было собрано более полумиллиона рублей.

Дополнительная информация

Скретчи: 1, 13 - Marker, 7, 12 - DJ Mos
Дизайн: Printa
Скриншоты
(2017) Выходи За Меня
Издатель (лейбл): Invisible Management
Номер по каталогу: CD-M+428-2
Продолжительность: 00:41:05


Треклист:
01. Спаси, Но Не Сохраняй (03:09)
02. Чего Ради? (03:37)
03. Смотри На Меня (03:28)
04. Рок Стар (03:20)
05. БДСМ (03:47)
06. Ангел (03:10)
07. Ненавижу (03:37)
08. Хаос (Feat. Pivovarov) (02:42)
09. Несколько Друзей (04:04)
10. Скорая Помощь (03:04)
11. Во Что Бы То Не Стало (03:50)
12. Поезда (03:18)
Лог создания рипа
Exact Audio Copy V1.3 from 2. September 2016
Отчёт EAC об извлечении, выполненном 26. мая 2019, 2:48
Anacondaz / Выходи За Меня
Дисковод: HL-DT-STDVDRAM GP60NB60 Adapter: 1 ID: 0
Режим чтения : Достоверность
Использование точного потока : Да
Отключение кэша аудио : Да
Использование указателей C2 : Нет
Коррекция смещения при чтении : 6
Способность читать области Lead-in и Lead-out : Нет
Заполнение пропущенных сэмплов тишиной : Да
Удаление блоков с тишиной в начале и конце : Нет
При вычислениях CRC использовались нулевые сэмплы : Да
Интерфейс : Встроенный Win32-интерфейс для Win NT/2000
Обработка зазоров : Добавлено к предыдущему треку
Выходной формат : Пользовательский кодировщик
Выбранный битрейт : 768 kBit/s
Качество : Высокий
Добавление ID3-тега : Нет
Утилита сжатия : D:\Program Files (x86)\foobar2000\encoders\refalac.exe
Дополнительные параметры : -s --ignorelength --artist "%artist%" --composer "%composer%" --track "%tracknr%"/"%numtracks%" --disk "%cdnumber%"/"%totalcds%" --title "%title%" --album "%albumtitle%" --date "%year%" --genre "%genre%" %haslyrics%--lyrics "%lyricsfile%"%haslyrics% %hascover%--artwork "%coverfile%"%hascover% -o %dest% %source%
TOC извлечённого CD
Трек | Старт | Длительность | Начальный сектор | Конечный сектор
---------------------------------------------------------------------
1 | 0:00.00 | 3:09.16 | 0 | 14190
2 | 3:09.16 | 3:36.40 | 14191 | 30430
3 | 6:45.56 | 3:28.11 | 30431 | 46041
4 | 10:13.67 | 3:19.38 | 46042 | 61004
5 | 13:33.30 | 3:46.74 | 61005 | 78028
6 | 17:20.29 | 3:10.27 | 78029 | 92305
7 | 20:30.56 | 3:36.74 | 92306 | 108579
8 | 24:07.55 | 2:42.02 | 108580 | 120731
9 | 26:49.57 | 4:04.29 | 120732 | 139060
10 | 30:54.11 | 3:03.42 | 139061 | 152827
11 | 33:57.53 | 3:49.39 | 152828 | 170041
12 | 37:47.17 | 3:18.13 | 170042 | 184904
Трек 1
Имя файла D:\Мои Рипы\Anacondaz - CD-Коллекция (3 CD) (ALAC)\(2017) Выходи За Меня\01. Спаси, Но Не Сохраняй.wav
Длина предзазора 0:00:02.00
Пиковый уровень 98.8 %
Скорость извлечения 1.0 X
Качество трека 99.9 %
CRC теста D375EE5A
CRC копии D375EE5A
Трек не обнаружен в базе AccurateRip
Копирование... OK
Трек 2
Имя файла D:\Мои Рипы\Anacondaz - CD-Коллекция (3 CD) (ALAC)\(2017) Выходи За Меня\02. Чего Ради.wav
Пиковый уровень 98.8 %
Скорость извлечения 1.3 X
Качество трека 100.0 %
CRC теста 1055CA5A
CRC копии 1055CA5A
Трек не обнаружен в базе AccurateRip
Копирование... OK
Трек 3
Имя файла D:\Мои Рипы\Anacondaz - CD-Коллекция (3 CD) (ALAC)\(2017) Выходи За Меня\03. Смотри На Меня.wav
Пиковый уровень 100.0 %
Скорость извлечения 1.2 X
Качество трека 99.9 %
CRC теста D7497BA3
CRC копии D7497BA3
Трек не обнаружен в базе AccurateRip
Копирование... OK
Трек 4
Имя файла D:\Мои Рипы\Anacondaz - CD-Коллекция (3 CD) (ALAC)\(2017) Выходи За Меня\04. Рок Стар.wav
Пиковый уровень 98.8 %
Скорость извлечения 1.3 X
Качество трека 99.9 %
CRC теста 945AFE74
CRC копии 945AFE74
Трек не обнаружен в базе AccurateRip
Копирование... OK
Трек 5
Имя файла D:\Мои Рипы\Anacondaz - CD-Коллекция (3 CD) (ALAC)\(2017) Выходи За Меня\05. БДСМ.wav
Пиковый уровень 100.0 %
Скорость извлечения 1.6 X
Качество трека 100.0 %
CRC теста E59721EA
CRC копии E59721EA
Трек не обнаружен в базе AccurateRip
Копирование... OK
Трек 6
Имя файла D:\Мои Рипы\Anacondaz - CD-Коллекция (3 CD) (ALAC)\(2017) Выходи За Меня\06. Ангел.wav
Пиковый уровень 98.8 %
Скорость извлечения 1.7 X
Качество трека 100.0 %
CRC теста B3786F37
CRC копии B3786F37
Трек не обнаружен в базе AccurateRip
Копирование... OK
Трек 7
Имя файла D:\Мои Рипы\Anacondaz - CD-Коллекция (3 CD) (ALAC)\(2017) Выходи За Меня\07. Ненавижу.wav
Пиковый уровень 100.0 %
Скорость извлечения 1.8 X
Качество трека 100.0 %
CRC теста 662E0EB9
CRC копии 662E0EB9
Трек не обнаружен в базе AccurateRip
Копирование... OK
Трек 8
Имя файла D:\Мои Рипы\Anacondaz - CD-Коллекция (3 CD) (ALAC)\(2017) Выходи За Меня\08. Хаос (Feat. Pivovarov).wav
Пиковый уровень 98.8 %
Скорость извлечения 1.5 X
Качество трека 99.9 %
CRC теста 0805FED8
CRC копии 0805FED8
Трек не обнаружен в базе AccurateRip
Копирование... OK
Трек 9
Имя файла D:\Мои Рипы\Anacondaz - CD-Коллекция (3 CD) (ALAC)\(2017) Выходи За Меня\09. Несколько Друзей.wav
Пиковый уровень 98.8 %
Скорость извлечения 1.9 X
Качество трека 100.0 %
CRC теста 0F8F088E
CRC копии 0F8F088E
Трек не обнаружен в базе AccurateRip
Копирование... OK
Трек 10
Имя файла D:\Мои Рипы\Anacondaz - CD-Коллекция (3 CD) (ALAC)\(2017) Выходи За Меня\10. Скорая Помощь.wav
Пиковый уровень 98.8 %
Скорость извлечения 1.7 X
Качество трека 99.9 %
CRC теста 234CE802
CRC копии 234CE802
Трек не обнаружен в базе AccurateRip
Копирование... OK
Трек 11
Имя файла D:\Мои Рипы\Anacondaz - CD-Коллекция (3 CD) (ALAC)\(2017) Выходи За Меня\11. Во Что Бы То Не Стало.wav
Пиковый уровень 89.1 %
Скорость извлечения 2.1 X
Качество трека 100.0 %
CRC теста E4460316
CRC копии E4460316
Трек не обнаружен в базе AccurateRip
Копирование... OK
Трек 12
Имя файла D:\Мои Рипы\Anacondaz - CD-Коллекция (3 CD) (ALAC)\(2017) Выходи За Меня\12. Поезда.wav
Пиковый уровень 100.0 %
Скорость извлечения 2.1 X
Качество трека 100.0 %
CRC теста 76ED6DB0
CRC копии 76ED6DB0
Трек не обнаружен в базе AccurateRip
Копирование... OK
Ни одного трека нет в базе AccurateRip
Ошибок не произошло
Конец отчёта
---- CUETools DB Plugin V2.1.6
[CTDB TOCID: l438AustXAzPhzswTb9EZKBazq8-] found
Submit result: l438AustXAzPhzswTb9EZKBazq8- has been confirmed
Track | CTDB Status
1 | (3/3) Accurately ripped
2 | (3/3) Accurately ripped
3 | (3/3) Accurately ripped
4 | (3/3) Accurately ripped
5 | (3/3) Accurately ripped
6 | (3/3) Accurately ripped
7 | (3/3) Accurately ripped
8 | (3/3) Accurately ripped
9 | (3/3) Accurately ripped
10 | (3/3) Accurately ripped
11 | (3/3) Accurately ripped
12 | (3/3) Accurately ripped
==== Контрольная сумма отчёта 393CA43F70FAC4E3923D9850C31C16BD6BAA9B641EAA5D5792460B2EB7E3870B ====
Содержание индексной карты (.CUE)
REM GENRE Rap
REM DATE 2017
REM DISCID 9109A10C
REM COMMENT "ExactAudioCopy v1.3"
PERFORMER "Anacondaz"
TITLE "Выходи За Меня"
REM COMPOSER "Anacondaz"
FILE "01. Спаси, Но Не Сохраняй.wav" WAVE
TRACK 01 AUDIO
TITLE "Спаси, Но Не Сохраняй"
PERFORMER "Anacondaz"
REM COMPOSER "Илья Погребняк, Алексей Назарчук"
INDEX 01 00:00:00
FILE "02. Чего Ради.wav" WAVE
TRACK 02 AUDIO
TITLE "Чего Ради?"
PERFORMER "Anacondaz"
REM COMPOSER "Илья Погребняк, Алексей Назарчук"
INDEX 01 00:00:00
FILE "03. Смотри На Меня.wav" WAVE
TRACK 03 AUDIO
TITLE "Смотри На Меня"
PERFORMER "Anacondaz"
REM COMPOSER "Илья Погребняк, Алексей Назарчук"
INDEX 01 00:00:00
FILE "04. Рок Стар.wav" WAVE
TRACK 04 AUDIO
TITLE "Рок Стар"
PERFORMER "Anacondaz"
REM COMPOSER "Илья Погребняк, Тимур Есетов, Сергей Лебедев"
INDEX 01 00:00:00
FILE "05. БДСМ.wav" WAVE
TRACK 05 AUDIO
TITLE "БДСМ"
PERFORMER "Anacondaz"
REM COMPOSER "Илья Погребняк, Тимур Есетов, Вячеслав Усков"
INDEX 01 00:00:00
FILE "06. Ангел.wav" WAVE
TRACK 06 AUDIO
TITLE "Ангел"
PERFORMER "Anacondaz"
REM COMPOSER "Илья Погребняк, Тимур Есетов, Сергей Лебедев"
INDEX 01 00:00:00
FILE "07. Ненавижу.wav" WAVE
TRACK 07 AUDIO
TITLE "Ненавижу"
PERFORMER "Anacondaz"
REM COMPOSER "Илья Погребняк, Тимур Есетов"
INDEX 01 00:00:00
FILE "08. Хаос (Feat. Pivovarov).wav" WAVE
TRACK 08 AUDIO
TITLE "Хаос (Feat. Pivovarov)"
PERFORMER "Anacondaz"
REM COMPOSER "Илья Погребняк, Алексей Назарчук, Артём Пивоваров"
INDEX 01 00:00:00
FILE "09. Несколько Друзей.wav" WAVE
TRACK 09 AUDIO
TITLE "Несколько Друзей"
PERFORMER "Anacondaz"
REM COMPOSER "Илья Погребняк, Алексей Назарчук, Сергей Лебедев"
INDEX 01 00:00:00
FILE "10. Скорая Помощь.wav" WAVE
TRACK 10 AUDIO
TITLE "Скорая Помощь"
PERFORMER "Anacondaz"
REM COMPOSER "Илья Погребняк, Алексей Назарчук"
INDEX 01 00:00:00
FILE "11. Во Что Бы То Не Стало.wav" WAVE
TRACK 11 AUDIO
TITLE "Во Что Бы То Не Стало"
PERFORMER "Anacondaz"
REM COMPOSER "Илья Погребняк, Тимур Есетов, Сергей Лебедев"
INDEX 01 00:00:00
FILE "12. Поезда.wav" WAVE
TRACK 12 AUDIO
TITLE "Поезда"
PERFORMER "Anacondaz"
REM COMPOSER "Илья Погребняк, Тимур Есетов, Сергей Лебедев"
INDEX 01 00:00:00
Лог проверки качества
-----------------------
DON'T MODIFY THIS FILE
-----------------------
PERFORMER: auCDtect Task Manager, ver. 1.6.0 RC1 build 1.6.0.1
Copyright (c) 2008-2010 y-soft. All rights reserved
http://y-soft.org
ANALYZER: auCDtect: CD records authenticity detector, version 0.8.2
Copyright (c) 2004 Oleg Berngardt. All rights reserved.
Copyright (c) 2004 Alexander Djourik. All rights reserved.
FILE: 01. Спаси, Но Не Сохраняй.m4a
Size: 24435788 Hash: 4C75510DDD98DBD4F282996EE242D5AE Accuracy: -m0
Conclusion: CDDA 100%
Signature: EB9246CF348EBE9384096CAF9B86222EAFA738B4
FILE: 02. Чего Ради.m4a
Size: 24845075 Hash: FED181CB70C0BA8BC9966D00C684CD2C Accuracy: -m0
Conclusion: CDDA 100%
Signature: FA4CB92F8B3C23BFD15FDE139C9D887D3887FF10
FILE: 03. Смотри На Меня.m4a
Size: 25002658 Hash: 8BF3AF71F2E5B23E996800DBB7AC1F5D Accuracy: -m0
Conclusion: CDDA 100%
Signature: BA8A1C6099CCFC961650F6A06A37B8B9E45AB296
FILE: 04. Рок Стар.m4a
Size: 21967905 Hash: A85EE9144F25C8F6AE361D39D34815E5 Accuracy: -m0
Conclusion: MPEG 95%
Signature: 433394C37A868CF024286F907027CA2D8F180BF7
FILE: 05. БДСМ.m4a
Size: 27058533 Hash: BC20B7EC15F3C89D8A06003F772F27C3 Accuracy: -m0
Conclusion: CDDA 100%
Signature: D285086262D7637A75C0C2A01CA45174B95FE711
FILE: 06. Ангел.m4a
Size: 22638785 Hash: B59D802741E4541A5985101984F380B7 Accuracy: -m0
Conclusion: CDDA 100%
Signature: 235C748DD09B44243FA3575C2B8BD2A37BEB9A48
FILE: 07. Ненавижу.m4a
Size: 22680074 Hash: 27A89F497CD78443A50B59BB01072B49 Accuracy: -m0
Conclusion: MPEG 95%
Signature: 2038FC7A4FF78F7294B63FCB72FF765D4FE7077D
FILE: 08. Хаос (Feat. Pivovarov).m4a
Size: 17841844 Hash: 33D2F3FED6986ECF4ADA4A21EAC2889C Accuracy: -m0
Conclusion: CDDA 100%
Signature: 6A964C7A67BC8C8EFC694A2A732C3A131D05A2D4
FILE: 09. Несколько Друзей.m4a
Size: 26796071 Hash: 1C2F23C8406C36830BA0B3E08B0842A6 Accuracy: -m0
Conclusion: CDDA 100%
Signature: AE42C7E21856586642A5953DA4311F27E39DFC20
FILE: 10. Скорая Помощь.m4a
Size: 22632641 Hash: 9BAC677174426A8FDF800A0EB9D8BFC4 Accuracy: -m0
Conclusion: CDDA 100%
Signature: B30916E2C3CEE66C3D106FC364DC309482003084
FILE: 11. Во Что Бы То Не Стало.m4a
Size: 21446859 Hash: F20188707A7D93AC56ACE2E75746D88D Accuracy: -m0
Conclusion: CDDA 100%
Signature: 3995262A2DB5A0CFD06197695637610E50BC50FB
FILE: 12. Поезда.m4a
Size: 22282245 Hash: C243964D6E1846D8796A7D158437F8DE Accuracy: -m0
Conclusion: MPEG 95%
Signature: FA7DF65382E5F962D5771251F6AD0B91AFA31136
Скриншот спектра частот
Об альбоме (сборнике)
Выходи за меня — пятый студийный альбом российской рэп-группы Anacondaz, выпущенный в 2017 году.
Дополнительная информация

Обложка и дизайн: Павел "NTHG" Гончаренко
Скриншоты
(2018) Я Тебя Никогда
Издатель (лейбл): Invisible Management
Номер по каталогу: -
Продолжительность: 00:40:31


Треклист:
01. Ни Капли Не Больно (04:03)
02. Дубак (02:55)
03. Твоему Новому Парню (Feat. Louna) (03:54)
04. Нахуй Тебя И Твоих Друзей (03:23)
05. Воспоминания О Тебе (04:11)
06. Ты Знаешь, Кто Он (03:45)
07. Драма (02:51)
08. Бессоница (Feat. (Feat. Влади) (04:11)
09. Не Курю (03:56)
10. Каберне (Feat. Ram) (03:30)
11. Двое (Feat. Animal ДжаZ) (03:53)
Лог создания рипа
Exact Audio Copy V1.3 from 2. September 2016
Отчёт EAC об извлечении, выполненном 2. июня 2019, 16:46
Anacondaz / Я Тебя Никогда
Дисковод: HL-DT-STDVDRAM GP60NB60 Adapter: 1 ID: 0
Режим чтения : Достоверность
Использование точного потока : Да
Отключение кэша аудио : Да
Использование указателей C2 : Нет
Коррекция смещения при чтении : 6
Способность читать области Lead-in и Lead-out : Нет
Заполнение пропущенных сэмплов тишиной : Да
Удаление блоков с тишиной в начале и конце : Нет
При вычислениях CRC использовались нулевые сэмплы : Да
Интерфейс : Встроенный Win32-интерфейс для Win NT/2000
Обработка зазоров : Добавлено к предыдущему треку
Выходной формат : Пользовательский кодировщик
Выбранный битрейт : 768 kBit/s
Качество : Высокий
Добавление ID3-тега : Нет
Утилита сжатия : D:\Program Files (x86)\foobar2000\encoders\refalac.exe
Дополнительные параметры : -s --ignorelength --artist "%artist%" --composer "%composer%" --track "%tracknr%"/"%numtracks%" --disk "%cdnumber%"/"%totalcds%" --title "%title%" --album "%albumtitle%" --date "%year%" --genre "%genre%" %haslyrics%--lyrics "%lyricsfile%"%haslyrics% %hascover%--artwork "%coverfile%"%hascover% -o %dest% %source%
TOC извлечённого CD
Трек | Старт | Длительность | Начальный сектор | Конечный сектор
---------------------------------------------------------------------
1 | 0:00.00 | 4:02.45 | 0 | 18194
2 | 4:02.45 | 2:54.62 | 18195 | 31306
3 | 6:57.32 | 3:54.00 | 31307 | 48856
4 | 10:51.32 | 3:22.49 | 48857 | 64055
5 | 14:14.06 | 4:10.38 | 64056 | 82843
6 | 18:24.44 | 3:45.24 | 82844 | 99742
7 | 22:09.68 | 2:51.31 | 99743 | 112598
8 | 25:01.24 | 4:10.71 | 112599 | 131419
9 | 29:12.20 | 3:56.24 | 131420 | 149143
10 | 33:08.44 | 3:29.49 | 149144 | 164867
11 | 36:38.18 | 3:52.71 | 164868 | 182338
Трек 1
Имя файла D:\Мои Рипы\Anacondaz - CD-Коллекция (3 CD) (ALAC)\(2018) Я Тебя Никогда\01. Ни Капли Не Больно.wav
Длина предзазора 0:00:02.00
Пиковый уровень 100.0 %
Скорость извлечения 3.0 X
Качество трека 100.0 %
CRC теста CF1F8ADD
CRC копии CF1F8ADD
Трек не обнаружен в базе AccurateRip
Копирование... OK
Трек 2
Имя файла D:\Мои Рипы\Anacondaz - CD-Коллекция (3 CD) (ALAC)\(2018) Я Тебя Никогда\02. Дубак.wav
Пиковый уровень 100.0 %
Скорость извлечения 3.1 X
Качество трека 100.0 %
CRC теста 8212D83C
CRC копии 8212D83C
Трек не обнаружен в базе AccurateRip
Копирование... OK
Трек 3
Имя файла D:\Мои Рипы\Anacondaz - CD-Коллекция (3 CD) (ALAC)\(2018) Я Тебя Никогда\03. Твоему Новому Парню (Feat. Louna).wav
Пиковый уровень 100.0 %
Скорость извлечения 3.4 X
Качество трека 100.0 %
CRC теста FC827E25
CRC копии FC827E25
Трек не обнаружен в базе AccurateRip
Копирование... OK
Трек 4
Имя файла D:\Мои Рипы\Anacondaz - CD-Коллекция (3 CD) (ALAC)\(2018) Я Тебя Никогда\04. Нахуй Тебя И Твоих Друзей.wav
Пиковый уровень 99.6 %
Скорость извлечения 3.6 X
Качество трека 100.0 %
CRC теста 5E7F33E9
CRC копии 5E7F33E9
Трек не обнаружен в базе AccurateRip
Копирование... OK
Трек 5
Имя файла D:\Мои Рипы\Anacondaz - CD-Коллекция (3 CD) (ALAC)\(2018) Я Тебя Никогда\05. Воспоминания О Тебе.wav
Пиковый уровень 100.0 %
Скорость извлечения 3.9 X
Качество трека 100.0 %
CRC теста 2F187968
CRC копии 2F187968
Трек не обнаружен в базе AccurateRip
Копирование... OK
Трек 6
Имя файла D:\Мои Рипы\Anacondaz - CD-Коллекция (3 CD) (ALAC)\(2018) Я Тебя Никогда\06. Ты Знаешь, Кто Он.wav
Пиковый уровень 100.0 %
Скорость извлечения 4.1 X
Качество трека 100.0 %
CRC теста 493F4F2C
CRC копии 493F4F2C
Трек не обнаружен в базе AccurateRip
Копирование... OK
Трек 7
Имя файла D:\Мои Рипы\Anacondaz - CD-Коллекция (3 CD) (ALAC)\(2018) Я Тебя Никогда\07. Драма.wav
Пиковый уровень 100.0 %
Скорость извлечения 4.0 X
Качество трека 100.0 %
CRC теста 646034A9
CRC копии 646034A9
Трек не обнаружен в базе AccurateRip
Копирование... OK
Трек 8
Имя файла D:\Мои Рипы\Anacondaz - CD-Коллекция (3 CD) (ALAC)\(2018) Я Тебя Никогда\08. Бессоница (Feat. Влади).wav
Пиковый уровень 100.0 %
Скорость извлечения 4.5 X
Качество трека 100.0 %
CRC теста 7DE6DC6B
CRC копии 7DE6DC6B
Трек не обнаружен в базе AccurateRip
Копирование... OK
Трек 9
Имя файла D:\Мои Рипы\Anacondaz - CD-Коллекция (3 CD) (ALAC)\(2018) Я Тебя Никогда\09. Не Курю.wav
Пиковый уровень 100.0 %
Скорость извлечения 4.6 X
Качество трека 100.0 %
CRC теста 6DD216DB
CRC копии 6DD216DB
Трек не обнаружен в базе AccurateRip
Копирование... OK
Трек 10
Имя файла D:\Мои Рипы\Anacondaz - CD-Коллекция (3 CD) (ALAC)\(2018) Я Тебя Никогда\10. Каберне (Feat. Ram).wav
Пиковый уровень 100.0 %
Скорость извлечения 4.7 X
Качество трека 100.0 %
CRC теста 90CC6D3E
CRC копии 90CC6D3E
Трек не обнаружен в базе AccurateRip
Копирование... OK
Трек 11
Имя файла D:\Мои Рипы\Anacondaz - CD-Коллекция (3 CD) (ALAC)\(2018) Я Тебя Никогда\11. Двое (Feat. Animal ДжаZ).wav
Пиковый уровень 100.0 %
Скорость извлечения 4.8 X
Качество трека 100.0 %
CRC теста 6A1204AA
CRC копии 6A1204AA
Трек не обнаружен в базе AccurateRip
Копирование... OK
Ни одного трека нет в базе AccurateRip
Ошибок не произошло
Конец отчёта
---- CUETools DB Plugin V2.1.6
[CTDB TOCID: Uu3CWOFX1j.UfXtzgPCHXAmE9Qw-] found
Submit result: already submitted
Track | CTDB Status
1 | (1/1) Accurately ripped
2 | (1/1) Accurately ripped
3 | (1/1) Accurately ripped
4 | (1/1) Accurately ripped
5 | (1/1) Accurately ripped
6 | (1/1) Accurately ripped
7 | (1/1) Accurately ripped
8 | (1/1) Accurately ripped
9 | (1/1) Accurately ripped
10 | (1/1) Accurately ripped
11 | (1/1) Accurately ripped
==== Контрольная сумма отчёта 03A6BB3E24DF8CAC0A9833CAB0638C616835A999539DD71A1AF2353CF846F6DA ====
Содержание индексной карты (.CUE)
REM GENRE Rap
REM DATE 2018
REM DISCID 7C097F0B
REM COMMENT "ExactAudioCopy v1.3"
PERFORMER "Anacondaz"
TITLE "Я Тебя Никогда"
REM COMPOSER ""
FILE "01. Ни Капли Не Больно.wav" WAVE
TRACK 01 AUDIO
TITLE "Ни Капли Не Больно"
PERFORMER "Anacondaz"
REM COMPOSER "Илья Погребняк, Алексей Назарчук"
INDEX 01 00:00:00
FILE "02. Дубак.wav" WAVE
TRACK 02 AUDIO
TITLE "Дубак"
PERFORMER "Anacondaz"
REM COMPOSER "Илья Погребняк, Алексей Назарчук, Сергей Карамушкин"
INDEX 01 00:00:00
FILE "03. Твоему Новому Парню (Feat. Louna).wav" WAVE
TRACK 03 AUDIO
TITLE "Твоему Новому Парню (Feat. Louna)"
PERFORMER "Anacondaz"
REM COMPOSER "Илья Погребняк, Алексей Назарчук, Сергей Карамушкин"
INDEX 01 00:00:00
FILE "04. Нахуй Тебя И Твоих Друзей.wav" WAVE
TRACK 04 AUDIO
TITLE "Нахуй Тебя И Твоих Друзей"
PERFORMER "Anacondaz"
REM COMPOSER "Илья Погребняк, Алексей Назарчук, Сергей Карамушкин, Тимур Есетов"
INDEX 01 00:00:00
FILE "05. Воспоминания О Тебе.wav" WAVE
TRACK 05 AUDIO
TITLE "Воспоминания О Тебе"
PERFORMER "Anacondaz"
REM COMPOSER "Илья Погребняк, Алексей Назарчук"
INDEX 01 00:00:00
FILE "06. Ты Знаешь, Кто Он.wav" WAVE
TRACK 06 AUDIO
TITLE "Ты Знаешь, Кто Он"
PERFORMER "Anacondaz"
REM COMPOSER "Илья Погребняк, Алексей Назарчук, Сергей Карамушкин, Тимур Есетов"
INDEX 01 00:00:00
FILE "07. Драма.wav" WAVE
TRACK 07 AUDIO
TITLE "Драма"
PERFORMER "Anacondaz"
REM COMPOSER "Илья Погребняк, Алексей Назарчук, Сергей Карамушкин"
INDEX 01 00:00:00
FILE "08. Бессоница (Feat. Влади).wav" WAVE
TRACK 08 AUDIO
TITLE "Бессоница (Feat. Влади)"
PERFORMER "Anacondaz"
REM COMPOSER "Илья Погребняк, Тимур Есетов"
INDEX 01 00:00:00
FILE "09. Не Курю.wav" WAVE
TRACK 09 AUDIO
TITLE "Не Курю"
PERFORMER "Anacondaz"
REM COMPOSER "Илья Погребняк, Тимур Есетов"
INDEX 01 00:00:00
FILE "10. Каберне (Feat. Ram).wav" WAVE
TRACK 10 AUDIO
TITLE "Каберне (Feat. Ram)"
PERFORMER "Anacondaz"
REM COMPOSER "Тимур Есетов, Сергей Желнов"
INDEX 01 00:00:00
FILE "11. Двое (Feat. Animal ДжаZ).wav" WAVE
TRACK 11 AUDIO
TITLE "Двое (Feat. Animal ДжаZ)"
PERFORMER "Anacondaz"
REM COMPOSER "Александр Красовицкий, Евгений Ряховский, Сергей Лебедев"
INDEX 01 00:00:00
Лог проверки качества
-----------------------
DON'T MODIFY THIS FILE
-----------------------
PERFORMER: auCDtect Task Manager, ver. 1.6.0 RC1 build 1.6.0.1
Copyright (c) 2008-2010 y-soft. All rights reserved
http://y-soft.org
ANALYZER: auCDtect: CD records authenticity detector, version 0.8.2
Copyright (c) 2004 Oleg Berngardt. All rights reserved.
Copyright (c) 2004 Alexander Djourik. All rights reserved.
FILE: 01. Ни Капли Не Больно.m4a
Size: 28534679 Hash: D54B91BB2AEFBB3EADF8360D6EBF97DE Accuracy: -m0
Conclusion: CDDA 100%
Signature: FE05C5CB6997405C3362423FE0BDFE0AD0897110
FILE: 02. Дубак.m4a
Size: 19653755 Hash: B5E6F550891F72F6B81F6A3888C4096D Accuracy: -m0
Conclusion: CDDA 100%
Signature: BE3022AA0D5658466C8677D6953B036E662A0D32
FILE: 03. Твоему Новому Парню (Feat. Louna).m4a
Size: 27379232 Hash: 1FCD992E413965D3B077F5F7C132183C Accuracy: -m0
Conclusion: CDDA 100%
Signature: A826565E504F36DD49FC31C31EE7E4EB71536E15
FILE: 04. Нахуй Тебя И Твоих Друзей.m4a
Size: 22924156 Hash: C1F1D7239A54A794CD6B12803B6C6E61 Accuracy: -m0
Conclusion: CDDA 100%
Signature: C7D721587EC0A48E6796BE6E696DAF45434B4D96
FILE: 05. Воспоминания О Тебе.m4a
Size: 26638688 Hash: 200E69BF58A403D287949B69573EF06A Accuracy: -m0
Conclusion: CDDA 100%
Signature: 6955ABA2D99BE3F85A1BB5BABED0C00C16236F6D
FILE: 06. Ты Знаешь, Кто Он.m4a
Size: 25669419 Hash: 029D71400C8F57F5BAE1892DF802EBE4 Accuracy: -m0
Conclusion: CDDA 100%
Signature: 555B310F9088CB39F26E5C1E9D80FEC2BD7DD72C
FILE: 07. Драма.m4a
Size: 20106161 Hash: BF36FB22E8198BF9CBE6FD4CE098EDE8 Accuracy: -m0
Conclusion: CDDA 100%
Signature: 41B49550E18DA825C38133714B73339B83E63920
FILE: 08. Бессоница (Feat. Влади).m4a
Size: 27537851 Hash: BE470A963A6E2F634C87E44014314699 Accuracy: -m0
Conclusion: CDDA 100%
Signature: 811ED6A32EFD46E1D6E9EEC05E2D696EA1F0BE8E
FILE: 09. Не Курю.m4a
Size: 25000143 Hash: B3DBFF4CD53FA42ABCC125740FDD452D Accuracy: -m0
Conclusion: CDDA 100%
Signature: 68D5B18C3A3EAA01A039FED8466C13666B5B490E
FILE: 10. Каберне (Feat. Ram).m4a
Size: 22238375 Hash: B665652F290828FDF7351E65466059C7 Accuracy: -m0
Conclusion: CDDA 100%
Signature: 71EDF523A29F086BB2A6323DE2F7B19E8E563039
FILE: 11. Двое (Feat. Animal ДжаZ).m4a
Size: 26365917 Hash: 56671599173CA54E7FC1577C2C6F3AC3 Accuracy: -m0
Conclusion: CDDA 99%
Signature: 3E62083D35B916635BEFECA3039112BA775E9DA9
Скриншот спектра частот
Об альбоме (сборнике)
Обещала представить его 12 октября — но получилось на день раньше. Участник группы Артем Хорев пишет в твиттере, что это из-за преждевременной утечки материала в сеть.
Пластинка носит название "Я тебя никогда", на фитах — Влади, Грязный Рамирес и Animal Джаz.
Пресс-релиз сообщает, что "грязный металлический звук" предыдущей записи "трансформируется в более демократичный поп-панк". Последний номерной альбом Anacondaz, "Выходи за меня", вышел в 2017 году. А недавно они выпустили концертный EP — там семь песен, переигранных в акустике.

Дополнительная информация

Запись/сведение: 1, 2, 3, 4, 5, 6, 7 - Александр Полежаев; 8, 9, 10, 11 - Тимур Есетов
Мастеринг: Richard Beetham, 360 Mastering
Обложка: Кирилл Поляков, Евгений Форманенко
Дизайн физического носителя: Павел "NTHG" Гончаренко
Скриншоты



Обновление 08.06.2019
Добавлены альбомы "Выходи За Меня" и "Я Тебя Никогда".
Download
Сайт не распространяет и не хранит электронные версии произведений, а лишь предоставляет доступ к создаваемому пользователями каталогу ссылок на торрент-файлы, которые содержат только списки хеш-сумм
Как скачивать? (для скачивания .torrent файлов необходима регистрация)
[Профиль]  [ЛС] 

wvaac

Стаж: 5 лет 1 месяц

Сообщений: 1234


wvaac · 21-Ноя-16 22:17 (спустя 4 часа)

FiLbI4_meloman
Тоже на ALAC перешёл ?
[Профиль]  [ЛС] 

Dr_Shtopor

Стаж: 7 лет 8 месяцев

Сообщений: 42

Dr_Shtopor · 19-Дек-16 09:03 (спустя 27 дней)

Отлично, спасибо огромное. Только вот последний альбом Байки Инсайдера звучит раза в два тише, чем нужно. Странно это.
[Профиль]  [ЛС] 

FiLbI4_meloman

Top Seed 01* 40r

Стаж: 9 лет 4 месяца

Сообщений: 300

FiLbI4_meloman · 19-Дек-16 14:48 (спустя 5 часов)

Dr_Shtopor
Да, вы правы - в большинстве треков пиковый уровень намного ниже ста процентов. Такая запись.
[Профиль]  [ЛС] 
 
Ответить
Loading...
Error