(Mainstream Jazz, Cool) [CD] Coleman Hawkins - April In Paris Featuring Body And Soul - 1992, FLAC (tracks+.cue), lossless

Страницы:  1

Ответить
Автор
Сообщение

papa1954

Top Seed 09* 10240r

Стаж: 12 лет 3 месяца

Сообщений: 16945

papa1954 · 15-Окт-16 01:21 (2 года 8 месяцев назад, ред. 15-Окт-16 02:01)

Coleman Hawkins - April In Paris Featuring Body And Soul Жанр: Mainstream Jazz, Cool
Носитель: CD
Год издания: 1992
Издатель (лейбл): BMG
Номер по каталогу: 61063-2
Аудиокодек: FLAC (*.flac)
Тип рипа: tracks+.cue
Битрейт аудио: lossless
Продолжительность: 31:33
Источник (релизер): What.cd (robman62)
Наличие сканов в содержимом раздачи: да
Треклист:
01. Body And Soul (3:06)
02. When Day Is Done (3:21)
03. Bouncing With Bean (3:08)
04. April In Paris (3:10)
05. Angel Face (3:15)
06. I Love You (2:53)
07. There Will Never Be Another You (3:00)
08. Little Girl Blue (3:07)
09. The Bean Stalks Again (3:29)
10. Have You Met Miss Jones? (3:03)
Rec.: 1939-1956.
 
Лог создания рипа
Exact Audio Copy V1.1 from 23. June 2015
EAC extraction logfile from 14. October 2016, 16:43
Coleman Hawkins / April In Paris Featuring Body And Soul
Used drive : PBDS CD-ROM DH-48N1S Adapter: 1 ID: 0
Read mode : Secure
Utilize accurate stream : Yes
Defeat audio cache : Yes
Make use of C2 pointers : No
Read offset correction : 6
Overread into Lead-In and Lead-Out : No
Fill up missing offset samples with silence : Yes
Delete leading and trailing silent blocks : No
Null samples used in CRC calculations : Yes
Used interface : Native Win32 interface for Win NT & 2000
Gap handling : Appended to previous track
Used output format : User Defined Encoder
Selected bitrate : 768 kBit/s
Quality : High
Add ID3 tag : No
Command line compressor : C:\Program Files (x86)\Exact Audio Copy\FLAC\FLAC.EXE
Additional command line options : -8 -V -T "ARTIST=%artist%" -T "TITLE=%title%" -T "ALBUM=%albumtitle%" -T "DATE=%year%" -T "TRACKNUMBER=%tracknr%" -T "GENRE=%genre%" -T "PERFORMER=%albuminterpret%" -T "COMPOSER=%composer%" %haslyrics%--tag-from-file=LYRICS="%lyricsfile%"%haslyrics% -T "ALBUMARTIST=%albumartist%" -T "DISCNUMBER=%cdnumber%" -T "TOTALDISCS=%totalcds%" -T "TOTALTRACKS=%numtracks%" -T "COMMENT=%comment%" %source% -o %dest%
TOC of the extracted CD
Track | Start | Length | Start sector | End sector
---------------------------------------------------------
1 | 0:00.37 | 3:06.13 | 37 | 13999
2 | 3:06.50 | 3:21.37 | 14000 | 29111
3 | 6:28.12 | 3:07.45 | 29112 | 43181
4 | 9:35.57 | 3:10.35 | 43182 | 57466
5 | 12:46.17 | 3:14.68 | 57467 | 72084
6 | 16:01.10 | 2:53.37 | 72085 | 85096
7 | 18:54.47 | 2:59.55 | 85097 | 98576
8 | 21:54.27 | 3:07.30 | 98577 | 112631
9 | 25:01.57 | 3:28.38 | 112632 | 128269
10 | 28:30.20 | 3:03.12 | 128270 | 142006
Track 1
Filename C:\EACRips\01 - Body And Soul.wav
Pre-gap length 0:00:02.49
Peak level 75.2 %
Extraction speed 4.1 X
Track quality 100.0 %
Test CRC 95172486
Copy CRC 95172486
Accurately ripped (confidence 2) [218F4E8F] (AR v2)
Copy OK
Track 2
Filename C:\EACRips\02 - When Day Is Done.wav
Pre-gap length 0:00:06.06
Peak level 88.8 %
Extraction speed 4.3 X
Track quality 99.9 %
Test CRC 32B0F75D
Copy CRC 32B0F75D
Accurately ripped (confidence 2) [F57562E1] (AR v2)
Copy OK
Track 3
Filename C:\EACRips\03 - Bouncing With Bean.wav
Pre-gap length 0:00:07.40
Peak level 100.0 %
Extraction speed 5.4 X
Track quality 100.0 %
Test CRC A11F6FFE
Copy CRC A11F6FFE
Accurately ripped (confidence 2) [F2D5106B] (AR v2)
Copy OK
Track 4
Filename C:\EACRips\04 - April In Paris.wav
Pre-gap length 0:00:05.60
Peak level 85.5 %
Extraction speed 5.4 X
Track quality 100.0 %
Test CRC D6049E4F
Copy CRC D6049E4F
Accurately ripped (confidence 2) [79A8D410] (AR v2)
Copy OK
Track 5
Filename C:\EACRips\05 - Angel Face.wav
Pre-gap length 0:00:04.46
Peak level 100.0 %
Extraction speed 5.3 X
Track quality 100.0 %
Test CRC DA485626
Copy CRC DA485626
Accurately ripped (confidence 2) [5D3E8FA9] (AR v2)
Copy OK
Track 6
Filename C:\EACRips\06 - I Love You.wav
Pre-gap length 0:00:03.62
Peak level 100.0 %
Extraction speed 5.6 X
Track quality 100.0 %
Test CRC B7B9D583
Copy CRC B7B9D583
Accurately ripped (confidence 2) [AA2BA72E] (AR v2)
Copy OK
Track 7
Filename C:\EACRips\07 - There Will Never Be Another You.wav
Pre-gap length 0:00:03.16
Peak level 82.2 %
Extraction speed 6.2 X
Track quality 100.0 %
Test CRC D564ABDD
Copy CRC D564ABDD
Accurately ripped (confidence 2) [430DF116] (AR v2)
Copy OK
Track 8
Filename C:\EACRips\08 - Little Girl Blue.wav
Pre-gap length 0:00:04.00
Peak level 79.0 %
Extraction speed 6.1 X
Track quality 100.0 %
Test CRC ECCEF5DF
Copy CRC ECCEF5DF
Accurately ripped (confidence 2) [498284C5] (AR v2)
Copy OK
Track 9
Filename C:\EACRips\09 - The Bean Stalks Again.wav
Pre-gap length 0:00:06.89
Peak level 78.1 %
Extraction speed 4.2 X
Track quality 99.9 %
Test CRC 2C5963D1
Copy CRC 2C5963D1
Accurately ripped (confidence 2) [85081F50] (AR v2)
Copy OK
Track 10
Filename C:\EACRips\10 - Have You Met Miss Jones~.wav
Pre-gap length 0:00:05.40
Peak level 86.6 %
Extraction speed 6.6 X
Track quality 100.0 %
Test CRC E02D4C54
Copy CRC E02D4C54
Accurately ripped (confidence 2) [6973E92E] (AR v2)
Copy OK
All tracks accurately ripped
No errors occurred
End of status report
---- CUETools DB Plugin V2.1.6
[CTDB TOCID: 5BGI50pom9Oma28O9SljRPy0BrY-] found
Submit result: 5BGI50pom9Oma28O9SljRPy0BrY- has been confirmed
Track | CTDB Status
1 | (2/2) Accurately ripped
2 | (2/2) Accurately ripped
3 | (2/2) Accurately ripped
4 | (2/2) Accurately ripped
5 | (2/2) Accurately ripped
6 | (2/2) Accurately ripped
7 | (2/2) Accurately ripped
8 | (2/2) Accurately ripped
9 | (2/2) Accurately ripped
10 | (2/2) Accurately ripped
==== Log checksum 96FDC5F0C4F759B00904A447B7A56161A964CC0AB99DEF86F69C15810236C5AB ====
Содержание индексной карты (.CUE)
REM GENRE Jazz
REM DATE 1992
REM DISCID 8307650A
REM COMMENT "ExactAudioCopy v1.1"
CATALOG 0000000000000
PERFORMER "Coleman Hawkins"
TITLE "April In Paris Featuring Body And Soul"
FILE "01 - Body And Soul.wav" WAVE
TRACK 01 AUDIO
TITLE "Body And Soul"
PERFORMER "Coleman Hawkins"
PREGAP 00:00:37
INDEX 01 00:00:00
TRACK 02 AUDIO
TITLE "When Day Is Done"
PERFORMER "Coleman Hawkins"
INDEX 00 03:00:08
FILE "02 - When Day Is Done.wav" WAVE
INDEX 01 00:00:00
TRACK 03 AUDIO
TITLE "Bouncing With Bean"
PERFORMER "Coleman Hawkins"
INDEX 00 03:14:07
FILE "03 - Bouncing With Bean.wav" WAVE
INDEX 01 00:00:00
TRACK 04 AUDIO
TITLE "April In Paris"
PERFORMER "Coleman Hawkins"
INDEX 00 03:02:00
FILE "04 - April In Paris.wav" WAVE
INDEX 01 00:00:00
TRACK 05 AUDIO
TITLE "Angel Face"
PERFORMER "Coleman Hawkins"
INDEX 00 03:06:00
FILE "05 - Angel Face.wav" WAVE
INDEX 01 00:00:00
TRACK 06 AUDIO
TITLE "I Love You"
PERFORMER "Coleman Hawkins"
INDEX 00 03:11:21
FILE "06 - I Love You.wav" WAVE
INDEX 01 00:00:00
TRACK 07 AUDIO
TITLE "There Will Never Be Another You"
PERFORMER "Coleman Hawkins"
INDEX 00 02:50:25
FILE "07 - There Will Never Be Another You.wav" WAVE
INDEX 01 00:00:00
TRACK 08 AUDIO
TITLE "Little Girl Blue"
PERFORMER "Coleman Hawkins"
INDEX 00 02:55:55
FILE "08 - Little Girl Blue.wav" WAVE
INDEX 01 00:00:00
TRACK 09 AUDIO
TITLE "The Bean Stalks Again"
PERFORMER "Coleman Hawkins"
INDEX 00 03:00:38
FILE "09 - The Bean Stalks Again.wav" WAVE
INDEX 01 00:00:00
TRACK 10 AUDIO
TITLE "Have You Met Miss Jones?"
PERFORMER "Coleman Hawkins"
INDEX 00 03:23:08
FILE "10 - Have You Met Miss Jones~.wav" WAVE
INDEX 01 00:00:00
Об альбоме (сборнике)
On APRIL IN PARIS, the king of tenor saxophone plays in myriad musical settings recorded over three decades. Hawkins' inimitable dark-toned sound is documented over these ten tracks. However, his classic recordings from the '30s and '40s demonstrate his legacy best. Whether it is "Body and Soul" or "Bouncing With Bean," Hawk's woody, vibrato-laden approach is in full bloom. Songs such as "There Will Never Be Another You," "Little Girl Blue," and "Have you Met Miss Jones?" are enhanced by the delicate and lush sound of a string orchestra. Hawkins, known for a thick, almost abrasive sound, plays lighter and more romantically (a la his friend Lester Young) on these tracks. --AMG
Download
Для скачивания .torrent файлов необходима регистрация
Сайт не распространяет и не хранит электронные версии произведений, а лишь предоставляет доступ к создаваемому пользователями каталогу ссылок на торрент-файлы, которые содержат только списки хеш-сумм
[Профиль]  [ЛС] 
 
Ответить
Loading...
Error