(Bop, Cool) Doug Raney Trio - Blues, Ballads, Bebop And A Blue Girl - 2008, WavPack (iso.wv), lossless

Страницы:  1

Ответить
Автор
Сообщение

arizona--dream

Стаж: 10 лет 5 месяцев

Сообщений: 375

arizona--dream · 22-Сен-16 21:54 (2 года 8 месяцев назад, ред. 23-Сен-16 22:30)

Doug Raney Trio / Blues, Ballads, Bebop And A Blue Girl Жанр: Bop, Cool
Носитель: CD
Страна-производитель диска (релиза): Тайвань
Год издания: 2008
Издатель (лейбл): Marshmallow EXPORT
Номер по каталогу: MMEX-128-CD
Страна исполнителя (группы): Дания
Аудиокодек: WavPack (*.wv)
Тип рипа: iso.wv
Битрейт аудио: lossless
Продолжительность: 00:54:22
Источник (релизер): AD's (Netlab)
Наличие сканов в содержимом раздачи: да
Треклист:
1. Oblivion (4:27)
2. Blue Monk (8:54)
3. This Is New (8:49)
4. Little Girl Blue (9:10)
5. Photograph (8:00)
6. Dear Old Stockholm (7:08)
7. Who Cares (7:54)
Лог создания рипа
Exact Audio Copy V1.0 beta 3 from 29. August 2011
EAC extraction logfile from 2. January 2013, 9:48
Doug Raney Trio / Blues, Ballads, Bebop And A Blue Girl
Used drive : HL-DT-STBDDVDRW GBC-H20N Adapter: 1 ID: 0
Read mode : Secure
Utilize accurate stream : Yes
Defeat audio cache : Yes
Make use of C2 pointers : No
Read offset correction : 667
Overread into Lead-In and Lead-Out : No
Fill up missing offset samples with silence : Yes
Delete leading and trailing silent blocks : No
Null samples used in CRC calculations : Yes
Used interface : Native Win32 interface for Win NT & 2000
Used output format : User Defined Encoder
Selected bitrate : 1024 kBit/s
Quality : High
Add ID3 tag : No
Command line compressor : C:\Program Files\Exact Audio Copy\wavpack.exe
Additional command line options : -hm %source% %dest%
TOC of the extracted CD
Track | Start | Length | Start sector | End sector
---------------------------------------------------------
1 | 0:00.00 | 4:26.72 | 0 | 20021
2 | 4:26.72 | 8:53.73 | 20022 | 60069
3 | 13:20.70 | 8:48.73 | 60070 | 99742
4 | 22:09.68 | 9:10.13 | 99743 | 141005
5 | 31:20.06 | 7:59.39 | 141006 | 176969
6 | 39:19.45 | 7:08.05 | 176970 | 209074
7 | 46:27.50 | 7:53.65 | 209075 | 244614
Range status and errors
Selected range
Filename C:\Users\ProgDog\Music\ZALIVKI\Single albums\Doug Raney Trio\Doug Raney Trio - Blues, Ballads, Bebop And A Blue Girl.wav
Peak level 100.0 %
Extraction speed 5.9 X
Range quality 100.0 %
Test CRC 1C8F1574
Copy CRC 1C8F1574
Copy OK
No errors occurred
AccurateRip summary
Track 1 not present in database
Track 2 not present in database
Track 3 not present in database
Track 4 not present in database
Track 5 not present in database
Track 6 not present in database
Track 7 not present in database
None of the tracks are present in the AccurateRip database
End of status report
---- CUETools DB Plugin V2.1.3
[CTDB TOCID: jWEl9fm48IzSp779l5HEHWg0hT0-] disk not present in database, Submit result: jWEl9fm48IzSp779l5HEHWg0hT0- has been uploaded
==== Log checksum D445886E09D10068BA36C2D1A651E83971B66C0F59EFE281AA2C83691DF17B7D ====
Содержание индексной карты (.CUE)
REM GENRE "Guitar Jazz"
REM DATE 2008
REM DISCID 5D0CBD07
REM COMMENT "ExactAudioCopy v1.0b3"
PERFORMER "Doug Raney Trio"
TITLE "Blues, Ballads, Bebop And A Blue Girl"
FILE "Doug Raney Trio - 2008 - Blues, Ballads, Bebop And A Blue Girl.{2009 Marshmallow EXPORT MMEX-128-CD}.wv" WAVE
TRACK 01 AUDIO
TITLE "Oblivion"
PERFORMER "Doug Raney Trio"
INDEX 01 00:00:00
TRACK 02 AUDIO
TITLE "Blue Monk"
PERFORMER "Doug Raney Trio"
INDEX 00 04:26:48
INDEX 01 04:26:72
TRACK 03 AUDIO
TITLE "This Is New"
PERFORMER "Doug Raney Trio"
INDEX 00 13:20:46
INDEX 01 13:20:70
TRACK 04 AUDIO
TITLE "Little Girl Blue"
PERFORMER "Doug Raney Trio"
INDEX 00 22:09:44
INDEX 01 22:09:68
TRACK 05 AUDIO
TITLE "Photograph"
PERFORMER "Doug Raney Trio"
INDEX 00 31:19:57
INDEX 01 31:20:06
TRACK 06 AUDIO
TITLE "Dear Old Stockholm"
PERFORMER "Doug Raney Trio"
INDEX 00 39:19:21
INDEX 01 39:19:45
TRACK 07 AUDIO
TITLE "Who Cares"
PERFORMER "Doug Raney Trio"
INDEX 00 46:27:26
INDEX 01 46:27:50
Лог проверки качества
-----------------------
DON'T MODIFY THIS FILE
-----------------------
PERFORMER: auCDtect Task Manager, ver. 1.5.1RC6 build 1.5.1.7
Copyright (c) 2008-2010 y-soft. All rights reserved
http://y-soft.org
ANALYZER: auCDtect: CD records authenticity detector, version 0.8.2
Copyright (c) 2004 Oleg Berngardt. All rights reserved.
Copyright (c) 2004 Alexander Djourik. All rights reserved.
FILE: Doug Raney Trio - Blues, Ballads, Bebop And A Blue Girl.wv
Size: 281990578 Hash: 590E77A124441BA36D7AEEDFCBFABC11 Accuracy: -m8
Conclusion: CDDA 100%
Signature: E80BA4F6C1A277788641EBE125580AFED4AB3A8C
Back / CD / Matrix / Spectrum
Содержимое контейнера
artist.jpg
back.jpg
cd.jpg
Doug Raney Trio - Blues, Ballads, Bebop And A Blue Girl.accurip
Doug Raney Trio - Blues, Ballads, Bebop And A Blue Girl.cue
Doug Raney Trio - Blues, Ballads, Bebop And A Blue Girl.log
Doug Raney Trio - Blues, Ballads, Bebop And A Blue Girl.wv
front.jpg
info.txt
Marshmallow EXPORT MMEX-128-CD.sig
checkers/Doug Raney Trio - Blues, Ballads, Bebop And A Blue Girl.wv.auCDtect.txt
checkers/Doug Raney Trio - Blues, Ballads, Bebop And A Blue Girl.wv.spectrum.png
checkers/EAC.png
checkers/foo_dr.txt
checkers/matrix.png
covers/1.png
covers/2.png
covers/cd.png
covers/inside.png
covers/obi.png
Об исполнителе (группе)
Doug Raney (August 29, 1956 – May 1, 2016) was an American jazz guitarist. He was the son of Jimmy Raney.
Raney began his career in his father's band, with Al Haig, at the age of 18. He later played in a duo with his father. He recorded as a leader for SteepleChase extensively in the 1970s and 1980s, and worked with Kenny Barron, Joey DeFrancesco, Billy Hart, Duke Jordan, Jesper Lundgaard, Horace Parlan, Niels-Henning Ørsted Pedersen, Tomas Franck, Bernt Rosengren, and Chet Baker among others. Doug Raney moved to Denmark in 1977.
Об альбоме (сборнике)
Doug Raney is a brilliant guitarist whose style is firmly rooted in the bebop and classic modern jazz traditions. He has lived in Copenhagen for more than 30 years, shortly after he first visited the Danish capital during a duo tour with his father and famous guitarst, Jimmy Raney.
Living in Denmark may have decreased his visibility to the American audience, but he has created a substantial body of thoughful, emotionally subtle, and powerful jazz and recorded for the Danish label Steeple Chase as well as the Japanese label Marshmallow Records.
His latest Marshmallow CD is a delight! From the opening track "Oblivion," the listner is captivated by his warm tone, impeccable technique, flowing sense of swing, and a perfect balance of lyricism and emotion. Veteran bassist -- and one of the best in Europe -- Jesper Lundgaard provides great support at the bottom end, while the younger Morten Lund adds much color to the proceedings with his delicate and brilliant drumming.
This is a wonderful guitar trio album. Strongly recommended for fans of the jazz guitar!
Recorded in Copenhagen, April and May 2008. This gate-fold paper sleeve "mini-LP" package includes full-length liner notes in English by Ib Skovgaard.
Состав
Doug Raney (guitar)
Jesper Lundgaard (bass)
Morten Lund (drums)
Что такое iso.wv? Инструкция по эксплуатации.
Download
Для скачивания .torrent файлов необходима регистрация
Сайт не распространяет и не хранит электронные версии произведений, а лишь предоставляет доступ к создаваемому пользователями каталогу ссылок на торрент-файлы, которые содержат только списки хеш-сумм
[Профиль]  [ЛС] 
 
Ответить
Loading...
Error