(Pop) Hall & Oats - The very best of - 2008 (ALAC, tracks), lossless - 2008 (сборник) ALAC, lossless

Страницы:  1

Ответить
Автор
Сообщение

semykin88

Стаж: 9 лет 10 месяцев

Сообщений: 9


semykin88 · 10-Ноя-11 14:49 (7 лет 7 месяцев назад)

(Pop) Hall & Oats - The very best of - 2008 (ALAC, tracks), lossless
Год: 2008
Страна: USA
Жанр: Pop
Тип издания: сборник
Издатель (лейбл): RCA Records
Наличие сканов в содержимом раздачи: нет
Продолжительность: 60,2
Тексты: вшиты
Кодек: ALAC
Программа-риповщик : foobar2000 + iTunes (lossless)
Битрейт: lossless
Треклист:
1 Sara Smile
2 Rich Girl
3 It's a Laugh
4 Wait for Me
5 You've Lost That Lovin' Feelin'
6 Kiss on My List
7 You Make My Dreams
8 Private Eyes
9 I Can't Go for That (No Can Do)
10 Did It in a Minute
11 Maneater
12 One on One
13 Family Man
14 Say It Isn't So
15 Adult Education
16 Out of Touch
17 Method of Modern Love
18 Some Things Are Better Left Unsaid
Доп. информация: Hall & Oates — музыкальный дуэт филадельфийцев Дэрила Холла и Джона Оутса, один из самых успешных в истории американского шоу-бизнеса. Они смешивали элементы филадельфийского соула и мягкого рока для создания лёгкой танцевальной музыки, окрещённой ими «рок-энд-соулом».
С 1977 по 1984 гг. Холл и Оутс шесть раз возглавляли Billboard Hot 100 — с написанными ими самими песнями «Rich Girl», «Kiss on My List», «Private Eyes», «I Can’t Go for That», «Maneater» и «Out of Touch». Их шлягеры неоднократно возвращались на вершины хит-парадов в исполнении певцов более молодого поколения.
В апреле 1984 г. Американская ассоциация звукозаписывающих компаний объявила Холла и Оутса самым успешным дуэтом в истории американской музыки. В этот год по числу проданных записей они превзошли братьев Эверли и Саймона с Гарфанкелом. Wikipedia
Скриншоты
Лог создания рипа
Exact Audio Copy V0.99 prebeta 4 from 23. January 2008
Отчёт EAC об извлечении, выполненном 9. ноября 2008, 18:19
Hall & Oates / The Very Best Of
Дисковод: TSSTcorpCDDVDW SH-S203D Adapter: 2 ID: 0
Режим чтения : Достоверность
Использование точного потока : Да
Отключение кэша аудио : Да
Использование указателей C2 : Нет
Коррекция смещения при чтении : 6
Способность читать области Lead-in и Lead-out : Нет
Заполнение пропущенных сэмплов тишиной : Да
Удаление блоков с тишиной в начале и конце : Нет
При вычислениях CRC использовались нулевые сэмплы : Да
Интерфейс : Встроенный Win32-интерфейс для Win NT/2000
Выходной формат : Внутренние WAV-операции
Формат сэмплов : 44.100 Гц; 16 бит; стерео
TOC извлечённого CD
Трек | Старт | Длительность | Начальный сектор | Конечный сектор
---------------------------------------------------------------------
1 | 0:00.00 | 3:10.70 | 0 | 14319
2 | 3:10.70 | 2:27.37 | 14320 | 25381
3 | 5:38.32 | 3:46.70 | 25382 | 42401
4 | 9:25.27 | 4:09.48 | 42402 | 61124
5 | 13:35.00 | 4:39.70 | 61125 | 82119
6 | 18:14.70 | 4:25.65 | 82120 | 102059
7 | 22:40.60 | 3:09.67 | 102060 | 116301
8 | 25:50.52 | 3:40.05 | 116302 | 132806
9 | 29:30.57 | 5:11.63 | 132807 | 156194
10 | 34:42.45 | 3:40.50 | 156195 | 172744
11 | 38:23.20 | 4:34.40 | 172745 | 193334
12 | 42:57.60 | 4:20.65 | 193335 | 212899
13 | 47:18.50 | 3:27.67 | 212900 | 228491
14 | 50:46.42 | 4:20.03 | 228492 | 247994
15 | 55:06.45 | 4:37.12 | 247995 | 268781
16 | 59:43.57 | 4:12.13 | 268782 | 287694
17 | 63:55.70 | 5:35.62 | 287695 | 312881
18 | 69:31.57 | 5:26.35 | 312882 | 337366
Характеристики диапазона извлечения и сообщения об ошибках
Выбранный диапазон
Имя файла D:\МОИ ДОКУМЕНТЫ\Azureus Downloads\Hall & Oates - The Very Best Of\Hall & Oates - The Very Best Of.wav
Пиковый уровень 98.8 %
Качество диапазона 100.0 %
CRC копии CF656CE8
Копирование... OK
Ошибок не произошло
AccurateRip: сводка
Трек 1 точность не определена (достоверность 3) [BE56BDFC], AccurateRip вернул [5804B615]
Трек 2 точность не определена (достоверность 3) [D754AE53], AccurateRip вернул [3D77F12A]
Трек 3 точность не определена (достоверность 3) [E9BBD6EC], AccurateRip вернул [E6E81CB1]
Трек 4 точность не определена (достоверность 3) [0F5E7070], AccurateRip вернул [F7CCE825]
Трек 5 точность не определена (достоверность 3) [3C513E68], AccurateRip вернул [F0F13797]
Трек 6 точность не определена (достоверность 3) [CFF8601A], AccurateRip вернул [A79BDF00]
Трек 7 точность не определена (достоверность 3) [940F858B], AccurateRip вернул [3012564D]
Трек 8 точность не определена (достоверность 3) [3BBCD692], AccurateRip вернул [831084C2]
Трек 9 точность не определена (достоверность 3) [8A2F2FE3], AccurateRip вернул [0CAC3C57]
Трек 10 точность не определена (достоверность 3) [ADFB2F11], AccurateRip вернул [71544A10]
Трек 11 точность не определена (достоверность 3) [24C5E9D6], AccurateRip вернул [02D0CCB8]
Трек 12 точность не определена (достоверность 3) [F2D2020D], AccurateRip вернул [FAF6A746]
Трек 13 точность не определена (достоверность 3) [E7F9C640], AccurateRip вернул [2F4401E5]
Трек 14 точность не определена (достоверность 3) [5F8041E0], AccurateRip вернул [3AFF9F75]
Трек 15 точность не определена (достоверность 3) [53409D50], AccurateRip вернул [DADF0FF0]
Трек 16 точность не определена (достоверность 3) [ABB11C86], AccurateRip вернул [F12B8A34]
Трек 17 точность не определена (достоверность 3) [6250207C], AccurateRip вернул [B58AAC0E]
Трек 18 точность не определена (достоверность 3) [6ABE2AC1], AccurateRip вернул [1F5F40BA]
Ни один трек не прошёл проверки на точность
В вашей базе может быть иной вариант штамповки диска
Конец отчёта
ссылка на источник https://rutracker.org/forum/viewtopic.php?t=1242501
Download
Для скачивания .torrent файлов необходима регистрация
Сайт не распространяет и не хранит электронные версии произведений, а лишь предоставляет доступ к создаваемому пользователями каталогу ссылок на торрент-файлы, которые содержат только списки хеш-сумм
[Профиль]  [ЛС] 

sakayama213

Стаж: 5 лет 8 месяцев

Сообщений: 30


sakayama213 · 21-Май-19 02:30 (спустя 7 лет 6 месяцев)

Please seed! Thanks
[Профиль]  [ЛС] 

Cretaceous

Стаж: 5 лет 10 месяцев

Сообщений: 83


Cretaceous · 23-Май-19 19:30 (спустя 2 дня 17 часов)

Помогите скачать.
[Профиль]  [ЛС] 
 
Ответить
Loading...
Error