(Cool/Hard Bop) Miles Davis - Blue Moods - 1955, APE (image+.cue), lossless

Страницы:  1

Ответить
Автор
Сообщение

strizh64

Top Seed 04* 320r

Стаж: 10 лет 7 месяцев

Сообщений: 940

strizh64 · 18-Авг-09 14:23 (9 лет 9 месяцев назад, ред. 07-Авг-13 12:11)

Miles Davis - Blue Moods
Жанр: Cool/Hard Bop
Год выпуска диска: 1955
Производитель диска: Germany
Аудио кодек: APE
Тип рипа: image+.cue
Битрейт аудио: lossless
Продолжительность: 26:50
Трэклист:
1 Nature Boy
2 Alone Together
3 There's No You
4 Easy Living
Музыканты:
Miles Davis - trumpet
Britt Woodman - trombone
Charles Mingus - bass
Teddy Charles - vibes
Elvin Jones - drums
Доп. информация:
Собственный рип с оригинального CD, все сканы 300 dpi. Предлагается на замену теме с "NO disable cache".
Отчёт EAC
Exact Audio Copy V0.99 prebeta 4 from 23. January 2008
Отчёт EAC об извлечении, выполненном 12. августа 2009, 15:40
Miles Davis / Blue Moods
Дисковод: Optiarc DVD RW AD-7200A Adapter: 3 ID: 1
Режим чтения : Достоверность
Использование точного потока : Да
Отключение кэша аудио : Да
Использование указателей C2 : Нет
Коррекция смещения при чтении : 48
Способность читать области Lead-in и Lead-out : Нет
Заполнение пропущенных сэмплов тишиной : Да
Удаление блоков с тишиной в начале и конце : Нет
При вычислениях CRC использовались нулевые сэмплы : Да
Интерфейс : Установленный внешний ASPI-интерфейс
Выходной формат : Внутренние WAV-операции
Формат сэмплов : 44.100 Гц; 16 бит; стерео
TOC извлечённого CD
Трек | Старт | Длительность | Начальный сектор | Конечный сектор
---------------------------------------------------------------------
1 | 0:00.00 | 6:17.69 | 0 | 28343
2 | 6:17.69 | 7:19.18 | 28344 | 61286
3 | 13:37.12 | 8:08.30 | 61287 | 97916
4 | 21:45.42 | 5:04.40 | 97917 | 120756
Характеристики диапазона извлечения и сообщения об ошибках
Выбранный диапазон
Имя файла E:\Up-Down\Miles Davis - Blue Moods\Miles Davis - Blue Moods.wav
Пиковый уровень 100.0 %
Качество диапазона 100.0 %
CRC копии 2CBC609F
Копирование... OK
Ошибок не произошло
Конец отчёта
Audiochecker
AUDIOCHECKER v1.2 - by Dester - [email protected]
~~~~~~~~~~~~~~~~~
1 -===- E:\Up-Down\Miles Davis - Blue Moods\Miles Davis - Blue Moods.ape
Extracted successfully
Conclusion: This track looks like CDDA with probability 100%
Download
Для скачивания .torrent файлов необходима регистрация
Сайт не распространяет и не хранит электронные версии произведений, а лишь предоставляет доступ к создаваемому пользователями каталогу ссылок на торрент-файлы, которые содержат только списки хеш-сумм
[Профиль]  [ЛС] 

Andre_y

Стаж: 11 лет 5 месяцев

Сообщений: 6


Andre_y · 03-Дек-09 22:50 (спустя 3 месяца 16 дней)

Спасибо за музыку, так подскажите это разные диски https://rutracker.org/forum/viewtopic.php?t=705597, разное количество треков, а название альбома одно и тоже?
[Профиль]  [ЛС] 

strizh64

Top Seed 04* 320r

Стаж: 10 лет 7 месяцев

Сообщений: 940

strizh64 · 03-Дек-09 23:04 (спустя 13 мин.)

Andre_y
Да, разные. Это - оригинальный альбом 55-го года, а там - сборник под тем же названием. Так часто бывает :|
[Профиль]  [ЛС] 
 
Ответить
Loading...
Error