[TR24][OF] Ennio Morricone - The Ennio Morricone Jubilee - 2002/2016 (Instrumental)

Страницы:  1
Ответить
Автор
Сообщение

papa1954

Top Seed 09* 10240r

Стаж: 12 лет 5 месяцев

Сообщений: 16969

papa1954 · 04-Янв-18 03:54 (1 год 7 месяцев назад, ред. 04-Янв-18 04:06)

Ennio Morricone - The Ennio Morricone Jubilee Формат записи/Источник записи: [TR24][OF]
Наличие водяных знаков: Нет
Год издания/переиздания диска: 2002/2016
Жанр: Instrumental
Издатель (лейбл): Editions Milan Music
Продолжительность: 75:38
Наличие сканов в содержимом раздачи: Буклет PDF
Треклист:
01. Once Upon A Time In The West (3:11)
02. The Mission (Gabriel's Theme) (2:18)
03. Once Upon A Time In America (Deborah's Theme) (4:11)
04. L'eredità ferramonti (L'héritage) (1:55)
05. Metti, una sera a cena (Disons, un soir à dîner) (3:42)
06. Il maestro e Margherita (Le maître et Marguerite) (4:57)
07. Il prato (Le pré) (3:35)
08. Lolita (4:26)
09. Rampage (Le sang du châtiment) (4:38)
10. Novecento (Romanza) (3:06)
11. Mosè (Moïse) (5:16)
12. Per le antiche scale (Vertiges) (2:25)
13. Cinema paradiso (3:10)
14. Il deserto dei Tartari (Le désert des Tartares) (3:24)
15. Indagine su un cittadino al di sopra di ogni sospetto (Enquête sur un citoyen au-dessus de tout soupçon) (2:57)
16. Gott Mit Uns (À l'aube du cinquième Jour) (2:29)
17. Symphonic Suite for Chorus and Orchestra (Part 1A) (2:07)
18. Symphonic Suite for Chorus and Orchestra (Part 1D) (3:47)
19. Cane bianco (Dressé pour tuer) (3:31)
20. Stark System (2:29)
21. Le due stagioni della vita (Les deux saisons de la vie) (2:37)
22. Gli angeli del potere (Les anges du pouvoir) (3:02)
23. Love Affair (Rendez-vous avec le destin) (2:26)
 
Об альбоме (сборнике)
Jubilee is a compilation of many of Ennio Morricone’s most memorable contributions to film and television music. The themes found on the album have been transposed for flute, piano and strings, and are brought to life in arrangements conducted by the great man himself. The combination of instruments is electrifying. On these pieces, Paolo Zampini plays flute; Luca Pincini Cello; Fausto Aselmo voila and Gilda Butta piano. They work in perfect harmony, and the end result is a stunning album that reminds us what an extraordinary artist Morricone is.
Everyone will have their favourite piece: for us, the frantic, forceful nature of Il Prato is exhilarating, with the flute unusually carrying the drama of the melody. Then there’s the Rachmaninoff-style Mosè, in which the flute takes the melody and the piano accompanies with an arrangement of cords that works against it. Spine-tingling, both.
Our favourite piece is his score for Lolita, which is truly remarkable. Not only is it a brilliant piece of music, but it also successfully evokes the source material. It is full of the obsessional longing and pain of Nabokov’s story, whilst also containing something of the richness and complexity of the text. Rarely has a musical theme ever so near-perfectly understood the narrative.
The most recognisable pieces will be the scores to the best-known films, and the album starts with the double-bill. First up is Once Upon A Time In The West, Sergio Leone’s spaghetti western a genre that remains strongly identified with Morricone’s name. The Mission is next: a complicated film about men inspired by religion to do good when organised religion is responsible for so much evil around them. It’s represented here by Gabriel’s Theme one of Morricone’s best-known compositions. Cinema Paradiso is another familiar score, which rightly finds its way onto this album too.

Контейнер: FLAC (*.flac)
Тип рипа: tracks
Разрядность: 24/44,1
Формат: PCM
Количество каналов: 2.0
Лог проверки качества
foobar2000 1.3.9 / Dynamic Range Meter 1.1.1
log date: 2018-01-04 03:35:41
--------------------------------------------------------------------------------
Analyzed: Ennio Morricone / The Ennio Morricone Jubilee
--------------------------------------------------------------------------------
DR Peak RMS Duration Track
--------------------------------------------------------------------------------
DR15 -0.14 dB -22.58 dB 3:11 01-Once Upon A Time In The West
DR10 -1.62 dB -16.98 dB 2:18 02-The Mission (Gabriel's Theme)
DR13 -0.14 dB -19.44 dB 4:11 03-Once Upon A Time In America (Deborah's Theme)
DR9 -1.20 dB -16.67 dB 1:55 04-L'eredità ferramonti (L'héritage)
DR13 -0.14 dB -19.77 dB 3:42 05-Metti, una sera a cena (Disons, un soir à dîner)
DR11 -0.14 dB -14.93 dB 4:57 06-Il maestro e Margherita (Le maître et Marguerite)
DR9 -1.30 dB -14.56 dB 3:35 07-Il prato (Le pré)
DR11 -0.14 dB -17.38 dB 4:26 08-Lolita
DR10 -0.49 dB -15.34 dB 4:38 09-Rampage (Le sang du châtiment)
DR12 -1.90 dB -21.04 dB 3:06 10-Novecento (Romanza)
DR16 -0.14 dB -21.76 dB 5:16 11-Mosè (Moïse)
DR11 -0.63 dB -15.79 dB 2:25 12-Per le antiche scale (Vertiges)
DR13 -0.14 dB -20.68 dB 3:10 13-Cinema paradiso
DR13 -0.28 dB -19.72 dB 3:24 14-Il deserto dei Tartari (Le désert des Tartares)
DR13 -0.14 dB -17.06 dB 2:57 15-Indagine su un cittadino al di sopra di ogni sospetto (Enquête sur un citoyen au-dessus de tout soupçon)
DR13 -3.48 dB -22.91 dB 2:29 16-Gott Mit Uns (À l'aube du cinquième Jour)
DR9 -2.21 dB -14.29 dB 2:07 17-Symphonic Suite for Chorus and Orchestra (Part 1A)
DR10 -0.83 dB -15.53 dB 3:47 18-Symphonic Suite for Chorus and Orchestra (Part 1D)
DR13 -0.14 dB -19.57 dB 3:31 19-Cane bianco (Dressé pour tuer)
DR11 -0.14 dB -16.78 dB 2:29 20-Stark System
DR12 -0.14 dB -17.25 dB 2:37 21-Le due stagioni della vita (Les deux saisons de la vie)
DR12 -0.14 dB -16.92 dB 3:02 22-Gli angeli del potere (Les anges du pouvoir)
DR14 -0.43 dB -21.03 dB 2:26 23-Love Affair (Rendez-vous avec le destin)
--------------------------------------------------------------------------------
Number of tracks: 23
Official DR value: DR12
Samplerate: 44100 Hz
Channels: 2
Bits per sample: 24
Bitrate: 1135 kbps
Codec: FLAC
================================================================================
Источник: qobuz.com
Download
Сайт не распространяет и не хранит электронные версии произведений, а лишь предоставляет доступ к создаваемому пользователями каталогу ссылок на торрент-файлы, которые содержат только списки хеш-сумм
Как скачивать? (для скачивания .torrent файлов необходима регистрация)
[Профиль]  [ЛС] 

Шура1962

Стаж: 7 лет 3 месяца

Сообщений: 9


Шура1962 · 16-Мар-18 19:52 (спустя 2 месяца 12 дней)

Великолепная музыка... просто сказка. Марриконе - вечный шедевр. Запись идеальная!!!
[Профиль]  [ЛС] 
 
Ответить
Loading...
Error