(Darkwave, Experimental, Trip-Hop, Folk) [CD] Theodor Bastard - Vetvi - 2015, ALAC (tracks+.cue), lossless

Страницы:  1

Ответить
Автор
Сообщение

Dreamer1974

Стаж: 9 лет 11 месяцев

Сообщений: 100


Dreamer1974 · 23-Июл-16 16:40 (2 года 11 месяцев назад, ред. 24-Июл-16 10:31)

Theodor Bastard / Vetvi
Жанр: Darkwave, Experimental, Trip-Hop, Folk
Носитель: CD
Страна-производитель диска: Россия
Год издания: 2015
Издатель (лейбл): Theo Records
Номер по каталогу: Theo 005
Страна исполнителя (группы): Россия
Аудио кодек: ALAC (*.m4a)
Тип рипа: tracks+.cue
Программа-конвертер: Собственный рип (EAC)
Битрейт аудио: lossless
Продолжительность: 00:50:00
Наличие сканов в содержимом раздачи: нет
Тексты: не требуются
Официальный сайт www.theodorbastard.com
Треклист:
01 Umbraya Erze (05:27)
02 Vetvi (04:05)
03 Salameika (04:32)
04 Kukushka (05:24)
05 Aion (06:21)
06 Niti (04:08)
07 Veter (feat. Namgar) (05:08)
08 Yaard (05:30)
09 Beliy Gorod (05:15)
10 Kolodec (03:25)
Лог создания рипа
Exact Audio Copy V1.1 from 23. June 2015
Отчёт EAC об извлечении, выполненном 23. июля 2016, 17:14
Theodor Bastard / Vetvi
Дисковод: ASUS BW-16D1HT Adapter: 1 ID: 0
Режим чтения : Достоверность
Использование точного потока : Да
Отключение кэша аудио : Да
Использование указателей C2 : Нет
Коррекция смещения при чтении : 6
Способность читать области Lead-in и Lead-out : Нет
Заполнение пропущенных сэмплов тишиной : Да
Удаление блоков с тишиной в начале и конце : Нет
При вычислениях CRC использовались нулевые сэмплы : Да
Интерфейс : Встроенный Win32-интерфейс для Win NT/2000
Обработка зазоров : Добавлено к предыдущему треку
Выходной формат : Пользовательский кодировщик
Выбранный битрейт : 1024 kBit/s
Качество : Высокий
Добавление ID3-тега : Нет
Утилита сжатия : C:\Program Files (x86)\Exact Audio Copy\qaac_2.59\x64\refalac64.exe
Дополнительные параметры : -s --ignorelength --artist "%artist%" --title "%title%" --album "%albumtitle%" --date "%year%" --track "%tracknr%" --genre "%genre%" -o %dest% %source%
TOC извлечённого CD
Трек | Старт | Длительность | Начальный сектор | Конечный сектор
---------------------------------------------------------------------
1 | 0:00.00 | 5:27.44 | 0 | 24568
2 | 5:27.44 | 4:05.53 | 24569 | 42996
3 | 9:33.22 | 4:32.33 | 42997 | 63429
4 | 14:05.55 | 5:24.60 | 63430 | 87789
5 | 19:30.40 | 6:21.62 | 87790 | 116426
6 | 25:52.27 | 4:08.52 | 116427 | 135078
7 | 30:01.04 | 5:08.14 | 135079 | 158192
8 | 35:09.18 | 5:30.32 | 158193 | 182974
9 | 40:39.50 | 5:15.28 | 182975 | 206627
10 | 45:55.03 | 3:25.43 | 206628 | 222045
Трек 1
Имя файла E:\Музыка на отслушивание\tracker\Обновленная и корректная раздача\Theodor Bastard - Vetvi - 2015\01 Umbraya Erze.wav
Длина предзазора 0:00:02.00
Пиковый уровень 98.8 %
Скорость извлечения 3.2 X
Качество трека 100.0 %
CRC теста D32DAB5D
CRC копии D32DAB5D
Копирование... OK
Трек 2
Имя файла E:\Музыка на отслушивание\tracker\Обновленная и корректная раздача\Theodor Bastard - Vetvi - 2015\02 Vetvi.wav
Пиковый уровень 98.8 %
Скорость извлечения 3.4 X
Качество трека 100.0 %
CRC теста 48D04E85
CRC копии 48D04E85
Копирование... OK
Трек 3
Имя файла E:\Музыка на отслушивание\tracker\Обновленная и корректная раздача\Theodor Bastard - Vetvi - 2015\03 Salameika.wav
Пиковый уровень 98.8 %
Скорость извлечения 3.8 X
Качество трека 100.0 %
CRC теста CF34659E
CRC копии CF34659E
Копирование... OK
Трек 4
Имя файла E:\Музыка на отслушивание\tracker\Обновленная и корректная раздача\Theodor Bastard - Vetvi - 2015\04 Kukushka.wav
Пиковый уровень 98.8 %
Скорость извлечения 4.1 X
Качество трека 100.0 %
CRC теста 020AB35B
CRC копии 020AB35B
Копирование... OK
Трек 5
Имя файла E:\Музыка на отслушивание\tracker\Обновленная и корректная раздача\Theodor Bastard - Vetvi - 2015\05 Aion.wav
Пиковый уровень 98.8 %
Скорость извлечения 4.5 X
Качество трека 100.0 %
CRC теста 300E81F0
CRC копии 300E81F0
Копирование... OK
Трек 6
Имя файла E:\Музыка на отслушивание\tracker\Обновленная и корректная раздача\Theodor Bastard - Vetvi - 2015\06 Niti.wav
Пиковый уровень 98.8 %
Скорость извлечения 4.5 X
Качество трека 100.0 %
CRC теста FF6234B1
CRC копии FF6234B1
Копирование... OK
Трек 7
Имя файла E:\Музыка на отслушивание\tracker\Обновленная и корректная раздача\Theodor Bastard - Vetvi - 2015\07 Veter (feat. Namgar).wav
Пиковый уровень 98.8 %
Скорость извлечения 4.9 X
Качество трека 100.0 %
CRC теста A75D165B
CRC копии A75D165B
Копирование... OK
Трек 8
Имя файла E:\Музыка на отслушивание\tracker\Обновленная и корректная раздача\Theodor Bastard - Vetvi - 2015\08 Yaard.wav
Пиковый уровень 98.8 %
Скорость извлечения 5.2 X
Качество трека 100.0 %
CRC теста D2DA3549
CRC копии D2DA3549
Копирование... OK
Трек 9
Имя файла E:\Музыка на отслушивание\tracker\Обновленная и корректная раздача\Theodor Bastard - Vetvi - 2015\09 Beliy Gorod.wav
Пиковый уровень 98.8 %
Скорость извлечения 4.9 X
Качество трека 99.9 %
CRC теста 15F1BC8A
CRC копии 15F1BC8A
Копирование... OK
Трек 10
Имя файла E:\Музыка на отслушивание\tracker\Обновленная и корректная раздача\Theodor Bastard - Vetvi - 2015\10 Kolodec.wav
Пиковый уровень 98.8 %
Скорость извлечения 5.2 X
Качество трека 100.0 %
CRC теста 53854D08
CRC копии 53854D08
Копирование... OK
Ошибок не произошло
Конец отчёта
==== Контрольная сумма отчёта A0147B469CC1556D3FB31691398950D8266F0F7DDDBD7F3E1728DAEF7278DF98 ====
Содержание индексной карты (.CUE)
REM GENRE Darkwave
REM DATE 2015
REM DISCID 7F0B900A
REM COMMENT "ExactAudioCopy v1.1"
PERFORMER "Theodor Bastard"
TITLE "Vetvi"
FILE "01 Umbraya Erze.m4a" WAVE
TRACK 01 AUDIO
TITLE "Umbraya Erze"
PERFORMER "Theodor Bastard"
INDEX 01 00:00:00
FILE "02 Vetvi.m4a" WAVE
TRACK 02 AUDIO
TITLE "Vetvi"
PERFORMER "Theodor Bastard"
INDEX 01 00:00:00
FILE "03 Salameika.m4a" WAVE
TRACK 03 AUDIO
TITLE "Salameika"
PERFORMER "Theodor Bastard"
INDEX 01 00:00:00
FILE "04 Kukushka.m4a" WAVE
TRACK 04 AUDIO
TITLE "Kukushka"
PERFORMER "Theodor Bastard"
INDEX 01 00:00:00
FILE "05 Aion.m4a" WAVE
TRACK 05 AUDIO
TITLE "Aion"
PERFORMER "Theodor Bastard"
INDEX 01 00:00:00
FILE "06 Niti.m4a" WAVE
TRACK 06 AUDIO
TITLE "Niti"
PERFORMER "Theodor Bastard"
INDEX 01 00:00:00
FILE "07 Veter (feat. Namgar).m4a" WAVE
TRACK 07 AUDIO
TITLE "Veter (feat. Namgar)"
PERFORMER "Theodor Bastard"
INDEX 01 00:00:00
FILE "08 Yaard.m4a" WAVE
TRACK 08 AUDIO
TITLE "Yaard"
PERFORMER "Theodor Bastard"
INDEX 01 00:00:00
FILE "09 Beliy Gorod.m4a" WAVE
TRACK 09 AUDIO
TITLE "Beliy Gorod"
PERFORMER "Theodor Bastard"
INDEX 01 00:00:00
FILE "10 Kolodec.m4a" WAVE
TRACK 10 AUDIO
TITLE "Kolodec"
PERFORMER "Theodor Bastard"
INDEX 01 00:00:00
Скриншот(ы) тегов iTunes
Доп. информация: Оцифровано в EAC с лицензионного диска из собственной коллекции. Стою на раздаче с 08:00 до 21:00 мск
Об исполнителе (группе)
Theodor Bastard (рус. Теодор Бастард) — российская музыкальная группа с женским вокалом из Санкт-Петербурга, созданная в 1996 году. Название группы образовано от английского варианта творческого псевдонима основателя группы - "Фёдор Сволочь". Музыка группы сочетает черты таких жанров, как world music, этно-электроника, трип-хоп, дарквэйв. Музыканты используют в своем творчестве как классические инструменты - виолончель, арфу, так и электронные - синтезаторы, семплеры, терменвокс и инструменты народов мира - дарбуки, ашико, конги, джембе, даф, саз, диджериду, цимбалы, гусли, дульцимер, кашиши, агого, баву, калимбы, маримбу, уду, окарины, моринхур, дунгчен, кахон, варганы и многие другие. Альбомы группы официально изданы в пяти странах мира: России, Германии, Турции, Мексике и Аргентине.
Download
Для скачивания .torrent файлов необходима регистрация
Сайт не распространяет и не хранит электронные версии произведений, а лишь предоставляет доступ к создаваемому пользователями каталогу ссылок на торрент-файлы, которые содержат только списки хеш-сумм
[Профиль]  [ЛС] 

Dreamer1974

Стаж: 9 лет 11 месяцев

Сообщений: 100


Dreamer1974 · 24-Июл-16 10:32 (спустя 17 часов)

Внесены исправления в теги iTunes. Торрент обновлен и перезалит!
[Профиль]  [ЛС] 

malobulok

Стаж: 10 лет 5 месяцев

Сообщений: 199

malobulok · 11-Сен-16 07:51 (спустя 1 месяц 17 дней, ред. 28-Окт-18 05:03)

Концерты Theodor Bastard этой осенью:
[Профиль]  [ЛС] 
 
Ответить
Loading...
Error