(Cool, Post-Bop, Progressive Jazz) [CD] Gil Evans Orchestra - Blues in Orbit (1969-1971) - 2009, FLAC (tracks+.cue), lossless

Страницы:  1

Ответить
Автор
Сообщение

fiks22

Top Seed 08* 5120r

Стаж: 11 лет 8 месяцев

Сообщений: 10914

fiks22 · 20-Май-15 15:07 (4 года 1 месяц назад, ред. 20-Май-15 15:08)

Gil Evans Orchestra - Blues in Orbit
Жанр: Cool, Post-Bop, Progressive Jazz
Носитель: CD
Страна-производитель диска (релиза): Германия
Год издания: 2009
Издатель (лейбл): Enja Records (24bit Master Edition)
Номер по каталогу: ENJ-2130 2
Страна исполнителя (группы): США
Аудиокодек: FLAC (*.flac)
Тип рипа: tracks+.cue
Битрейт аудио: lossless
Продолжительность: 36:12
Источник (релизер): mokman (what)
Наличие сканов в содержимом раздачи: нет
Треклист:
01. Thoroughbred (Harper) - 4:57
02. Spaced (Evans) - 3:05
03. Love in the Open (Smith) - 6:49
04. Variation on the Misery - 3:03
05. Blues in Orbit (Russell) - 6:50
06. Proclamation (Evans) - 1:48
07. General Assembly (Davis-Evans) - 7:13
08. So Long (Evans) - 2:27
Лог создания рипа
Exact Audio Copy V1.0 beta 3 from 29. August 2011
EAC extraction logfile from 17. October 2014, 13:27
Gil Evans Orchestra / Blues In Orbit
Used drive : HL-DT-STDVDRAM GU10N Adapter: 2 ID: 0
Read mode : Secure
Utilize accurate stream : Yes
Defeat audio cache : Yes
Make use of C2 pointers : No
Read offset correction : 667
Overread into Lead-In and Lead-Out : No
Fill up missing offset samples with silence : Yes
Delete leading and trailing silent blocks : No
Null samples used in CRC calculations : Yes
Used interface : Native Win32 interface for Win NT & 2000
Gap handling : Appended to previous track
Used output format : User Defined Encoder
Selected bitrate : 1024 kBit/s
Quality : High
Add ID3 tag : No
Command line compressor : C:\Program Files (x86)\FLAC\flac.exe
Additional command line options : -8 -V -T "ARTIST=%artist%" -T "TITLE=%title%" -T "ALBUM=%albumtitle%" -T "DATE=%year%" -T "TRACKNUMBER=%tracknr%" -T "GENRE=%genre%" -T "PERFORMER=%albuminterpret%" -T "COMPOSER=%composer%" %haslyrics%--tag-from-file=LYRICS="%lyricsfile%"%haslyrics% -T "ALBUMARTIST=%albumartist%" -T "DISCNUMBER=%cdnumber%" -T "TOTALDISCS=%totalcds%" -T "TOTALTRACKS=%numtracks%" -T "COMMENT=%comment%" %source% -o %dest%
TOC of the extracted CD
Track | Start | Length | Start sector | End sector
---------------------------------------------------------
1 | 0:00.00 | 4:57.19 | 0 | 22293
2 | 4:57.19 | 3:04.63 | 22294 | 36156
3 | 8:02.07 | 6:49.05 | 36157 | 66836
4 | 14:51.12 | 3:03.26 | 66837 | 80587
5 | 17:54.38 | 6:49.52 | 80588 | 111314
6 | 24:44.15 | 1:48.18 | 111315 | 119432
7 | 26:32.33 | 7:12.54 | 119433 | 151886
8 | 33:45.12 | 2:27.06 | 151887 | 162917
Track 1
Filename H:\EAC_Rips\Gil Evans Orchestra - Blues In Orbit (1971) [FLAC]\ 01 - Thoroughbred.wav
Pre-gap length 0:00:02.00
Peak level 100.0 %
Extraction speed 2.5 X
Track quality 100.0 %
Test CRC 93DEC810
Copy CRC 93DEC810
Accurately ripped (confidence 2) [5783F703] (AR v2)
Copy OK
Track 2
Filename H:\EAC_Rips\Gil Evans Orchestra - Blues In Orbit (1971) [FLAC]\ 02 - Spaced.wav
Pre-gap length 0:00:01.77
Peak level 68.7 %
Extraction speed 2.6 X
Track quality 100.0 %
Test CRC CFDECF00
Copy CRC CFDECF00
Accurately ripped (confidence 2) [4957DD2B] (AR v2)
Copy OK
Track 3
Filename H:\EAC_Rips\Gil Evans Orchestra - Blues In Orbit (1971) [FLAC]\ 03 - Love In The Open.wav
Pre-gap length 0:00:01.77
Peak level 93.7 %
Extraction speed 3.2 X
Track quality 100.0 %
Test CRC B1B859A4
Copy CRC B1B859A4
Accurately ripped (confidence 2) [63A2FAA6] (AR v2)
Copy OK
Track 4
Filename H:\EAC_Rips\Gil Evans Orchestra - Blues In Orbit (1971) [FLAC]\ 04 - Variation On The Misery.wav
Pre-gap length 0:00:01.77
Peak level 85.3 %
Extraction speed 3.1 X
Track quality 100.0 %
Test CRC 683E89E2
Copy CRC 683E89E2
Accurately ripped (confidence 2) [8E690071] (AR v2)
Copy OK
Track 5
Filename H:\EAC_Rips\Gil Evans Orchestra - Blues In Orbit (1971) [FLAC]\ 05 - Blues In Orbit.wav
Pre-gap length 0:00:01.77
Peak level 92.3 %
Extraction speed 2.9 X
Track quality 99.9 %
Test CRC D37B2698
Copy CRC D37B2698
Accurately ripped (confidence 2) [0FD2E895] (AR v2)
Copy OK
Track 6
Filename H:\EAC_Rips\Gil Evans Orchestra - Blues In Orbit (1971) [FLAC]\ 06 - Proclamation.wav
Pre-gap length 0:00:01.77
Peak level 85.7 %
Extraction speed 1.2 X
Track quality 99.9 %
Test CRC 95EBD615
Copy CRC 95EBD615
Accurately ripped (confidence 2) [D0EE476F] (AR v2)
Copy OK
Track 7
Filename H:\EAC_Rips\Gil Evans Orchestra - Blues In Orbit (1971) [FLAC]\ 07 - General Assembly.wav
Pre-gap length 0:00:01.77
Peak level 78.0 %
Extraction speed 2.1 X
Track quality 100.0 %
Test CRC C23DED82
Copy CRC C23DED82
Accurately ripped (confidence 2) [D8ADB491] (AR v2)
Copy OK
Track 8
Filename H:\EAC_Rips\Gil Evans Orchestra - Blues In Orbit (1971) [FLAC]\ 08 - So Long.wav
Pre-gap length 0:00:01.77
Peak level 62.5 %
Extraction speed 1.5 X
Track quality 99.9 %
Test CRC 46F6EBB8
Copy CRC 46F6EBB8
Accurately ripped (confidence 2) [DD85AC63] (AR v2)
Copy OK
All tracks accurately ripped
No errors occurred
End of status report
==== Log checksum 895475DEC5B3ED9D1C6A72F6533F9E59474B8F7922AE550ECC99BE27EBF46EC7 ====
Содержание индексной карты (.CUE)
REM GENRE Jazz
REM DATE 1971
REM DISCID 79087C08
REM COMMENT "ExactAudioCopy v1.0b3"
PERFORMER "Gil Evans Orchestra"
TITLE "Blues in Orbit"
FILE "01 - Thoroughbred.wav" WAVE
TRACK 01 AUDIO
TITLE "Thoroughbred"
PERFORMER "Gil Evans Orchestra"
ISRC DEA590753001
INDEX 01 00:00:00
TRACK 02 AUDIO
TITLE "Spaced"
PERFORMER "Gil Evans Orchestra"
ISRC DEA590753002
INDEX 00 04:55:36
FILE "02 - Spaced.wav" WAVE
INDEX 01 00:00:00
TRACK 03 AUDIO
TITLE "Love in the Open"
PERFORMER "Gil Evans Orchestra"
ISRC DEA590753003
INDEX 00 03:03:05
FILE "03 - Love in the Open.wav" WAVE
INDEX 01 00:00:00
TRACK 04 AUDIO
TITLE "Variation on the Misery"
PERFORMER "Gil Evans Orchestra"
ISRC DEA590753004
INDEX 00 06:47:22
FILE "04 - Variation on the Misery.wav" WAVE
INDEX 01 00:00:00
TRACK 05 AUDIO
TITLE "Blues in Orbit"
PERFORMER "Gil Evans Orchestra"
ISRC DEA590753005
INDEX 00 03:01:43
FILE "05 - Blues in Orbit.wav" WAVE
INDEX 01 00:00:00
TRACK 06 AUDIO
TITLE "Proclamation"
PERFORMER "Gil Evans Orchestra"
ISRC DEA590753006
INDEX 00 06:47:69
FILE "06 - Proclamation.wav" WAVE
INDEX 01 00:00:00
TRACK 07 AUDIO
TITLE "General Assembly"
PERFORMER "Gil Evans Orchestra"
ISRC DEA590753007
INDEX 00 01:46:35
FILE "07 - General Assembly.wav" WAVE
INDEX 01 00:00:00
TRACK 08 AUDIO
TITLE "So Long"
PERFORMER "Gil Evans Orchestra"
ISRC DEA590753008
INDEX 00 07:10:71
FILE "08 - So Long.wav" WAVE
INDEX 01 00:00:00
Отчет CUETools
[CUETools log; Date: 20.05.2015 15:02:12; Version: 2.1.5]
[CTDB TOCID: R4LZoE0BlQ0oPrSfoJmz281bVGY-] found.
Track | CTDB Status
1 | (3/3) Accurately ripped
2 | (3/3) Accurately ripped
3 | (3/3) Accurately ripped
4 | (3/3) Accurately ripped
5 | (3/3) Accurately ripped
6 | (3/3) Accurately ripped
7 | (3/3) Accurately ripped
8 | (3/3) Accurately ripped
[AccurateRip ID: 000b7745-004c6cf3-79087c08] found.
Track [ CRC | V2 ] Status
01 [a5ede401|5783f703] (03+02/10) Accurately ripped
02 [60dbcd0d|4957dd2b] (03+02/08) Accurately ripped
03 [3a4dac51|63a2faa6] (03+02/10) Accurately ripped
04 [5b1e3e15|8e690071] (03+02/10) Accurately ripped
05 [2ecc808e|0fd2e895] (03+02/10) Accurately ripped
06 [0c6580f6|d0ee476f] (03+02/10) Accurately ripped
07 [5de68b02|d8adb491] (03+02/10) Accurately ripped
08 [cf4a3bc8|dd85ac63] (03+02/10) Accurately ripped
Offsetted by -617:
01 [e5bc4984] (02/10) Accurately ripped
02 [e80a565d] (00/08) No match (V2 was not tested)
03 [831ec2f5] (02/10) Accurately ripped
04 [cabb6c44] (02/10) Accurately ripped
05 [7ebea6a6] (02/10) Accurately ripped
06 [53c30f0e] (02/10) Accurately ripped
07 [cbdec73e] (02/10) Accurately ripped
08 [4d61419e] (02/10) Accurately ripped
Track Peak [ CRC32 ] [W/O NULL] [ LOG ]
-- 100,0 [15E231F7] [D28094AA]
01 100,0 [93DEC810] [4BCA8CD1] CRC32
02 68,7 [CFDECF00] [88908DFF] CRC32
03 93,7 [B1B859A4] [D8477C15] CRC32
04 85,3 [683E89E2] [F84CB468] CRC32
05 92,3 [D37B2698] [B32F145A] CRC32
06 85,7 [95EBD615] [4DAD8CAF] CRC32
07 78,0 [C23DED82] [260C6BBC] CRC32
08 62,5 [46F6EBB8] [95E51830] CRC32
Review by Scott Yanow
Arranger Gil Evans's first recording as a leader in five years found him leading an orchestra that could be considered a transition between his 1950s groups and his somewhat electric band of the 1970s. Several of these charts, particularly his reworking of George Russell's "Blues in Orbit," are quite memorable, and Evans utilizes his many interesting sidemen, including the distinctive voices of trombonist Jimmy Cleveland, Howard Johnson on tuba and baritone, tenor-saxophonist Billy Harper and guitarist Joe Beck, in unexpected and unpredictable ways. A near-classic release which has been made available on CD by Enja.
Состав
#2-4,6-8:
Snooky Young, Mike Lawrence - trumpets
Jimmy Cleveland, Jimmy Knepper - trombones
Julius Watkins - French horn
Howard Johnson - tuba
Hubert Laws - flute
Billy Harper - tenor saxophone
Gil Evans - piano, electric piano
Joe Beck - guitar
Gene Bianco - harp
Herb Bushler - bass
Sue Evans - percussion
Elvin Jones - drums
Recorded in New York in 1969.
#1,5:
Ernie Royal, Johnny Coles - trumpets
Garnett Brown, Jimmy Cleveland - trombones
Ray Alonge - French horn
George Marge - flute, tenor saxophone
Billy Harper - tenor saxophone
Howard Johnson - tuba, baritone saxophone
Gil Evans - piano, electric piano
Joe Beck - guitar
Herb Bushler - bass
Donald McDonald - percussion
Alphonse Mouzon - drums
Recorded in New York in 1971.
(Cool, Post-Bop, Progressive Jazz) [CD] Gil Evans Orchestra - Blues in Orbit (1969-1971) - 1989, FLAC (tracks), lossless - другое издание
Download
Для скачивания .torrent файлов необходима регистрация
Сайт не распространяет и не хранит электронные версии произведений, а лишь предоставляет доступ к создаваемому пользователями каталогу ссылок на торрент-файлы, которые содержат только списки хеш-сумм
[Профиль]  [ЛС] 

duppyB

Стаж: 11 лет 5 месяцев

Сообщений: 3175

duppyB · 20-Май-15 17:21 (спустя 2 часа 14 мин.)

fiks22, большое спасибо! Я нагло сэкономила рейтинг на вате )))
[Профиль]  [ЛС] 

fiks22

Top Seed 08* 5120r

Стаж: 11 лет 8 месяцев

Сообщений: 10914

fiks22 · 20-Май-15 17:48 (спустя 27 мин.)

duppyB
Пожалуйста. Эта версия, на мой взгляд, получше звучит.
[Профиль]  [ЛС] 

s_e_r_g

Стаж: 11 лет 1 месяц

Сообщений: 467


s_e_r_g · 31-Май-15 11:39 (спустя 10 дней)

на границе между какофонией и шизофренией
но что-то в этом есть
[Профиль]  [ЛС] 
 
Ответить
Loading...
Error