(Chamber Jazz, Piano Jazz) Eldar Djangirov - Three Stories - 2011, FLAC (tracks+.cue), lossless

Страницы:  1
Ответить
Автор
Сообщение

PackFM

Стаж: 10 лет 2 месяца

Сообщений: 1027

PackFM · 25-Апр-11 16:29 (8 лет 3 месяца назад, ред. 22-Авг-11 19:13)

Eldar Djangirov / Three Stories
Жанр: Chamber Jazz, Piano Jazz
Страна-производитель диска: USA
Год издания диска: 2011
Издатель (номер по каталогу): Sony Masterworks (Unknown)
Аудио кодек: Flac
Тип рипа: Tracks+.cue
Битрейт аудио: Lossless
Продолжительность: 01:15:51
Источник (релизер): What.cd (MrBrew)
Наличие сканов в содержимом раздачи: Нет
01. I Should Care (5:11)
02. Prelude In C# Major (3:57)
03. Darn That Dream (5:49)
04. Windows (5:00)
05. Etude Op. 2 No. 1 (5:50)
06. In Walked Bud (4:54)
07. Three Stories (5:43)
08. So Damn Lucky (4:18)
09. Embraceable You (4:33)
10. Russian Lullaby (3:33)
11. Air On A G String (2:58)
12. Impromptu (5:46)
13. Rhapsody In Blue (14:59)
14. Donna Lee (3:20)

XLD
X Lossless Decoder version 20100918 (122.1)
XLD extraction logfile from 2011-04-11 15:55:17 -0400
Eldar Djangirov / Three Stories
Used drive : MATSHITA DVD-R UJ-898 (revision HC10)
Use cdparanoia mode : YES (CDParanoia III 10.2 engine)
Disable audio cache : OK for the drive with cache less than 2750KB
Make use of C2 pointers : NO
Read offset correction : 102
Max retry count : 100
Gap status : Analyzed, Appended
TOC of the extracted CD
Track | Start | Length | Start sector | End sector
---------------------------------------------------------
1 | 00:00:00 | 05:11:10 | 0 | 23334
2 | 05:11:10 | 03:56:69 | 23335 | 41103
3 | 09:08:04 | 05:49:12 | 41104 | 67290
4 | 14:57:16 | 05:00:20 | 67291 | 89810
5 | 19:57:36 | 05:49:42 | 89811 | 116027
6 | 25:47:03 | 04:53:57 | 116028 | 138059
7 | 30:40:60 | 05:43:26 | 138060 | 163810
8 | 36:24:11 | 04:17:66 | 163811 | 183151
9 | 40:42:02 | 04:33:04 | 183152 | 203630
10 | 45:15:06 | 03:33:06 | 203631 | 219611
11 | 48:48:12 | 02:58:32 | 219612 | 232993
12 | 51:46:44 | 05:45:47 | 232994 | 258915
13 | 57:32:16 | 14:59:02 | 258916 | 326342
14 | 72:31:18 | 03:19:55 | 326343 | 341322
All Tracks
Album gain : -1.95 dB
Peak : 1.000000
Track 01
Filename : /Users/mvigo/Desktop/FLAC/01 - I Should Care.flac
Pre-gap length : 00:02:00
Track gain : -1.41 dB
Peak : 0.942078
CRC32 hash (test run) : 85C1E2B1
CRC32 hash : 85C1E2B1
CRC32 hash (skip zero) : E4A35909
AccurateRip signature : 1AC390A1
->Track not present in AccurateRip database.
Statistics
Read error : 0
Skipped (treated as error) : 0
Edge jitter error (maybe fixed) : 0
Atom jitter error (maybe fixed) : 0
Drift error (maybe fixed) : 0
Dropped bytes error (maybe fixed) : 0
Duplicated bytes error (maybe fixed) : 0
Inconsistency in error sectors : 0
Track 02
Filename : /Users/mvigo/Desktop/FLAC/02 - Prelude In C# Major.flac
Track gain : -0.62 dB
Peak : 0.715363
CRC32 hash (test run) : 92A25F31
CRC32 hash : 92A25F31
CRC32 hash (skip zero) : 710CAD60
AccurateRip signature : B66DC80A
->Track not present in AccurateRip database.
Statistics
Read error : 0
Skipped (treated as error) : 0
Edge jitter error (maybe fixed) : 0
Atom jitter error (maybe fixed) : 0
Drift error (maybe fixed) : 0
Dropped bytes error (maybe fixed) : 0
Duplicated bytes error (maybe fixed) : 0
Inconsistency in error sectors : 0
Track 03
Filename : /Users/mvigo/Desktop/FLAC/03 - Darn That Dream.flac
Track gain : 0.71 dB
Peak : 0.667847
CRC32 hash (test run) : AB558C48
CRC32 hash : AB558C48
CRC32 hash (skip zero) : EC3C4C81
AccurateRip signature : 550DB1C0
->Track not present in AccurateRip database.
Statistics
Read error : 0
Skipped (treated as error) : 0
Edge jitter error (maybe fixed) : 0
Atom jitter error (maybe fixed) : 0
Drift error (maybe fixed) : 0
Dropped bytes error (maybe fixed) : 0
Duplicated bytes error (maybe fixed) : 0
Inconsistency in error sectors : 0
Track 04
Filename : /Users/mvigo/Desktop/FLAC/04 - Windows.flac
Track gain : 0.24 dB
Peak : 0.633698
CRC32 hash (test run) : ED3A0316
CRC32 hash : ED3A0316
CRC32 hash (skip zero) : C4C505CC
AccurateRip signature : F643AA27
->Track not present in AccurateRip database.
Statistics
Read error : 0
Skipped (treated as error) : 0
Edge jitter error (maybe fixed) : 0
Atom jitter error (maybe fixed) : 0
Drift error (maybe fixed) : 0
Dropped bytes error (maybe fixed) : 0
Duplicated bytes error (maybe fixed) : 0
Inconsistency in error sectors : 0
Track 05
Filename : /Users/mvigo/Desktop/FLAC/05 - Etude Op. 2 No. 1.flac
Track gain : -2.47 dB
Peak : 0.916534
CRC32 hash (test run) : 88C8950B
CRC32 hash : 88C8950B
CRC32 hash (skip zero) : 2AAD9F93
AccurateRip signature : C391B9AC
->Track not present in AccurateRip database.
Statistics
Read error : 0
Skipped (treated as error) : 0
Edge jitter error (maybe fixed) : 0
Atom jitter error (maybe fixed) : 0
Drift error (maybe fixed) : 0
Dropped bytes error (maybe fixed) : 0
Duplicated bytes error (maybe fixed) : 0
Inconsistency in error sectors : 0
Track 06
Filename : /Users/mvigo/Desktop/FLAC/06 - In Walked Bud.flac
Track gain : -2.33 dB
Peak : 0.950531
CRC32 hash (test run) : 101D5B78
CRC32 hash : 101D5B78
CRC32 hash (skip zero) : 4E2F636B
AccurateRip signature : B86EBAD0
->Track not present in AccurateRip database.
Statistics
Read error : 0
Skipped (treated as error) : 0
Edge jitter error (maybe fixed) : 0
Atom jitter error (maybe fixed) : 0
Drift error (maybe fixed) : 0
Dropped bytes error (maybe fixed) : 0
Duplicated bytes error (maybe fixed) : 0
Inconsistency in error sectors : 0
Track 07
Filename : /Users/mvigo/Desktop/FLAC/07 - Three Stories.flac
Track gain : -2.06 dB
Peak : 0.999969
CRC32 hash (test run) : 4EC26959
CRC32 hash : 4EC26959
CRC32 hash (skip zero) : D6E76F32
AccurateRip signature : 247B6573
->Track not present in AccurateRip database.
Statistics
Read error : 0
Skipped (treated as error) : 0
Edge jitter error (maybe fixed) : 0
Atom jitter error (maybe fixed) : 0
Drift error (maybe fixed) : 0
Dropped bytes error (maybe fixed) : 0
Duplicated bytes error (maybe fixed) : 0
Inconsistency in error sectors : 0
Track 08
Filename : /Users/mvigo/Desktop/FLAC/08 - So Damn Lucky.flac
Track gain : -1.20 dB
Peak : 0.878143
CRC32 hash (test run) : C6562063
CRC32 hash : C6562063
CRC32 hash (skip zero) : B47D0EC7
AccurateRip signature : 0EEC5E06
->Track not present in AccurateRip database.
Statistics
Read error : 0
Skipped (treated as error) : 0
Edge jitter error (maybe fixed) : 0
Atom jitter error (maybe fixed) : 0
Drift error (maybe fixed) : 0
Dropped bytes error (maybe fixed) : 0
Duplicated bytes error (maybe fixed) : 0
Inconsistency in error sectors : 0
Track 09
Filename : /Users/mvigo/Desktop/FLAC/09 - Embraceable You.flac
Track gain : -1.43 dB
Peak : 0.899811
CRC32 hash (test run) : 1819DBCD
CRC32 hash : 1819DBCD
CRC32 hash (skip zero) : 38EF3A10
AccurateRip signature : 1099EDAB
->Track not present in AccurateRip database.
Statistics
Read error : 0
Skipped (treated as error) : 0
Edge jitter error (maybe fixed) : 0
Atom jitter error (maybe fixed) : 0
Drift error (maybe fixed) : 0
Dropped bytes error (maybe fixed) : 0
Duplicated bytes error (maybe fixed) : 0
Inconsistency in error sectors : 0
Track 10
Filename : /Users/mvigo/Desktop/FLAC/10 - Russian Lullaby.flac
Track gain : -0.64 dB
Peak : 1.000000
CRC32 hash (test run) : 4827EC11
CRC32 hash : 4827EC11
CRC32 hash (skip zero) : 2A2106E6
AccurateRip signature : 7B5E0833
->Track not present in AccurateRip database.
Statistics
Read error : 0
Skipped (treated as error) : 0
Edge jitter error (maybe fixed) : 0
Atom jitter error (maybe fixed) : 0
Drift error (maybe fixed) : 0
Dropped bytes error (maybe fixed) : 0
Duplicated bytes error (maybe fixed) : 0
Inconsistency in error sectors : 0
Track 11
Filename : /Users/mvigo/Desktop/FLAC/11 - Air On A G String.flac
Track gain : 0.01 dB
Peak : 0.712189
CRC32 hash (test run) : 78755BBB
CRC32 hash : 78755BBB
CRC32 hash (skip zero) : 586599CF
AccurateRip signature : 0F859707
->Track not present in AccurateRip database.
Statistics
Read error : 0
Skipped (treated as error) : 0
Edge jitter error (maybe fixed) : 0
Atom jitter error (maybe fixed) : 0
Drift error (maybe fixed) : 0
Dropped bytes error (maybe fixed) : 0
Duplicated bytes error (maybe fixed) : 0
Inconsistency in error sectors : 0
Track 12
Filename : /Users/mvigo/Desktop/FLAC/12 - Impromptu.flac
Track gain : -1.74 dB
Peak : 0.888153
CRC32 hash (test run) : E414CF8D
CRC32 hash : E414CF8D
CRC32 hash (skip zero) : 86C17998
AccurateRip signature : 42B0D4EE
->Track not present in AccurateRip database.
Statistics
Read error : 0
Skipped (treated as error) : 0
Edge jitter error (maybe fixed) : 0
Atom jitter error (maybe fixed) : 0
Drift error (maybe fixed) : 0
Dropped bytes error (maybe fixed) : 0
Duplicated bytes error (maybe fixed) : 0
Inconsistency in error sectors : 0
Track 13
Filename : /Users/mvigo/Desktop/FLAC/13 - Rhapsody In Blue.flac
Track gain : -3.33 dB
Peak : 0.842133
CRC32 hash (test run) : E68E73A4
CRC32 hash : E68E73A4
CRC32 hash (skip zero) : 1428C6C0
AccurateRip signature : 4905F6AD
->Track not present in AccurateRip database.
Statistics
Read error : 0
Skipped (treated as error) : 0
Edge jitter error (maybe fixed) : 0
Atom jitter error (maybe fixed) : 0
Drift error (maybe fixed) : 0
Dropped bytes error (maybe fixed) : 0
Duplicated bytes error (maybe fixed) : 0
Inconsistency in error sectors : 0
Track 14
Filename : /Users/mvigo/Desktop/FLAC/14 - Donna Lee.flac
Track gain : -1.41 dB
Peak : 0.907990
CRC32 hash (test run) : E2BB60DF
CRC32 hash : E2BB60DF
CRC32 hash (skip zero) : 2B5EBF43
AccurateRip signature : 974B046B
->Track not present in AccurateRip database.
Statistics
Read error : 0
Skipped (treated as error) : 0
Edge jitter error (maybe fixed) : 0
Atom jitter error (maybe fixed) : 0
Drift error (maybe fixed) : 0
Dropped bytes error (maybe fixed) : 0
Duplicated bytes error (maybe fixed) : 0
Inconsistency in error sectors : 0
No errors occurred
End of status report
CUE
TITLE "Three Stories"
PERFORMER "Eldar Djangirov"
REM GENRE "Jazz"
REM DATE 2011
REM DISCNUMBER 1
REM TOTALDISCS 1
REM DISCID CC11C60E
REM REPLAYGAIN_ALBUM_GAIN -1.95 dB
REM REPLAYGAIN_ALBUM_PEAK 1.000000
FILE "01 - I Should Care.wav" WAVE
TRACK 01 AUDIO
TITLE "I Should Care"
SONGWRITER "Sammy Cahn"
ISRC USSM11003234
REM REPLAYGAIN_TRACK_GAIN -1.41 dB
REM REPLAYGAIN_TRACK_PEAK 0.942078
INDEX 01 00:00:00
FILE "02 - Prelude In C# Major.wav" WAVE
TRACK 02 AUDIO
TITLE "Prelude In C# Major"
SONGWRITER "Johann Sebastian Bach"
ISRC USSM11003236
REM REPLAYGAIN_TRACK_GAIN -0.62 dB
REM REPLAYGAIN_TRACK_PEAK 0.715363
INDEX 01 00:00:00
FILE "03 - Darn That Dream.wav" WAVE
TRACK 03 AUDIO
TITLE "Darn That Dream"
SONGWRITER "Jimmy Van Heusen"
ISRC USSM11003237
REM REPLAYGAIN_TRACK_GAIN 0.71 dB
REM REPLAYGAIN_TRACK_PEAK 0.667847
INDEX 01 00:00:00
FILE "04 - Windows.wav" WAVE
TRACK 04 AUDIO
TITLE "Windows"
SONGWRITER "Chick Corea"
ISRC USSM11003238
REM REPLAYGAIN_TRACK_GAIN 0.24 dB
REM REPLAYGAIN_TRACK_PEAK 0.633698
INDEX 01 00:00:00
FILE "05 - Etude Op. 2 No. 1.wav" WAVE
TRACK 05 AUDIO
TITLE "Etude Op. 2 No. 1"
SONGWRITER "Alexander Scriabin"
ISRC USSM11003239
REM REPLAYGAIN_TRACK_GAIN -2.47 dB
REM REPLAYGAIN_TRACK_PEAK 0.916534
INDEX 01 00:00:00
FILE "06 - In Walked Bud.wav" WAVE
TRACK 06 AUDIO
TITLE "In Walked Bud"
SONGWRITER "Thelonious Monk"
ISRC USSM11003240
REM REPLAYGAIN_TRACK_GAIN -2.33 dB
REM REPLAYGAIN_TRACK_PEAK 0.950531
INDEX 01 00:00:00
FILE "07 - Three Stories.wav" WAVE
TRACK 07 AUDIO
TITLE "Three Stories"
SONGWRITER "Eldar Djangirov"
ISRC USSM11003235
REM REPLAYGAIN_TRACK_GAIN -2.06 dB
REM REPLAYGAIN_TRACK_PEAK 0.999969
INDEX 01 00:00:00
FILE "08 - So Damn Lucky.wav" WAVE
TRACK 08 AUDIO
TITLE "So Damn Lucky"
SONGWRITER "Dave Matthews/Stephen Harris"
ISRC USSM11003242
REM REPLAYGAIN_TRACK_GAIN -1.20 dB
REM REPLAYGAIN_TRACK_PEAK 0.878143
INDEX 01 00:00:00
FILE "09 - Embraceable You.wav" WAVE
TRACK 09 AUDIO
TITLE "Embraceable You"
SONGWRITER "George Gershwin"
ISRC USSM11003243
REM REPLAYGAIN_TRACK_GAIN -1.43 dB
REM REPLAYGAIN_TRACK_PEAK 0.899811
INDEX 01 00:00:00
FILE "10 - Russian Lullaby.wav" WAVE
TRACK 10 AUDIO
TITLE "Russian Lullaby"
SONGWRITER "Eldar Djangirov"
ISRC USSM11003244
REM REPLAYGAIN_TRACK_GAIN -0.64 dB
REM REPLAYGAIN_TRACK_PEAK 1.000000
INDEX 01 00:00:00
FILE "11 - Air On A G String.wav" WAVE
TRACK 11 AUDIO
TITLE "Air On A G String"
SONGWRITER "Johann Sebastian Bach"
ISRC USSM11003245
REM REPLAYGAIN_TRACK_GAIN 0.01 dB
REM REPLAYGAIN_TRACK_PEAK 0.712189
INDEX 01 00:00:00
FILE "12 - Impromptu.wav" WAVE
TRACK 12 AUDIO
TITLE "Impromptu"
SONGWRITER "Eldar Djangirov"
ISRC USSM11003246
REM REPLAYGAIN_TRACK_GAIN -1.74 dB
REM REPLAYGAIN_TRACK_PEAK 0.888153
INDEX 01 00:00:00
FILE "13 - Rhapsody In Blue.wav" WAVE
TRACK 13 AUDIO
TITLE "Rhapsody In Blue"
SONGWRITER "George Gershwin"
ISRC USSM11003247
REM REPLAYGAIN_TRACK_GAIN -3.33 dB
REM REPLAYGAIN_TRACK_PEAK 0.842133
INDEX 01 00:00:00
FILE "14 - Donna Lee.wav" WAVE
TRACK 14 AUDIO
TITLE "Donna Lee"
SONGWRITER "Charlie Parker"
ISRC USSM11003248
REM REPLAYGAIN_TRACK_GAIN -1.41 dB
REM REPLAYGAIN_TRACK_PEAK 0.907990
INDEX 01 00:00:00

Download
Сайт не распространяет и не хранит электронные версии произведений, а лишь предоставляет доступ к создаваемому пользователями каталогу ссылок на торрент-файлы, которые содержат только списки хеш-сумм
Как скачивать? (для скачивания .torrent файлов необходима регистрация)
[Профиль]  [ЛС] 

mironov_ad

Moderator gray

Стаж: 12 лет 5 месяцев

Сообщений: 6578

mironov_ad · 26-Апр-11 00:02 (спустя 7 часов)

Отлично! Спасибо большое за новый альбом Эльдара!
[Профиль]  [ЛС] 

marcel 1

Стаж: 8 лет 3 месяца

Сообщений: 1


marcel 1 · 16-Сен-11 22:09 (спустя 4 месяца 20 дней)

mironov_ad писал(а):
Отлично! Спасибо большое за новый альбом Эльдара!
не скачиваеться!!!!!!
[Профиль]  [ЛС] 
 
Ответить
Loading...
Error